VERSION	0.00.00	1.03.00
FES_MODE	0
BPM_DEF	180.000	180.000	180.000	180.000
MET_DEF	4	4
RESOLUTION	384
CLK_DEF	384
COMPATIBLE_CODE	MA2

BPM	0	0	180.000
MET	0	0	4	4
MET	0	24	4	4
MET	10	0	4	2
MET	46	192	4	4

TAP	5	0	2
TAP	5	192	4
TAP	6	0	6
TAP	6	192	0
TAP	7	0	5
TAP	7	192	3
TAP	8	0	1
STR	8	192	7
SF_	8	192	7	96	480	3
TAP	10	192	3
TAP	10	192	4
TAP	10	288	3
TAP	10	288	4
TAP	11	0	3
TAP	11	0	4
TAP	11	96	1
TAP	11	96	6
TAP	11	192	2
TAP	11	288	2
TAP	12	0	3
TAP	12	96	3
TAP	12	192	2
TAP	12	288	3
TAP	13	0	2
TAP	13	0	3
TAP	13	192	5
TAP	13	288	5
TAP	14	0	4
TAP	14	96	4
TAP	14	192	5
TAP	14	288	4
TAP	15	0	4
TAP	15	0	5
TAP	15	192	6
TAP	15	288	6
TAP	16	0	7
TAP	16	96	7
TAP	16	192	6
TAP	16	288	7
TAP	17	0	6
TAP	17	0	7
TAP	17	192	1
TAP	17	288	1
TAP	18	0	0
TAP	18	96	0
TAP	18	192	1
TAP	18	288	0
TAP	19	0	0
TAP	19	0	1
TAP	19	192	2
TAP	19	288	2
TAP	20	0	2
TAP	20	0	3
TAP	20	96	2
TAP	20	96	3
TAP	20	192	2
TAP	20	288	2
TAP	21	0	2
TAP	21	0	3
TAP	21	96	2
TAP	21	96	3
TAP	21	192	5
TAP	21	288	5
TAP	22	0	4
TAP	22	0	5
TAP	22	96	4
TAP	22	96	5
TAP	22	192	5
TAP	22	288	5
TAP	23	0	4
TAP	23	0	5
TAP	23	96	4
TAP	23	96	5
TAP	23	192	2
TAP	23	288	2
TAP	24	0	1
TAP	24	0	3
TAP	24	96	1
TAP	24	96	3
TAP	24	192	2
TAP	24	288	2
TAP	25	0	1
TAP	25	0	3
TAP	25	96	1
TAP	25	96	3
TAP	25	192	5
TAP	25	288	5
TAP	26	0	4
TAP	26	0	6
TAP	26	96	4
TAP	26	96	6
TAP	26	192	5
TAP	26	288	5
TAP	27	0	4
TAP	27	0	6
TAP	27	96	4
TAP	27	96	6
HLD	27	192	2	288
TAP	28	0	3
TAP	28	96	3
HLD	28	192	5	288
TAP	29	0	4
TAP	29	96	4
HLD	29	192	1	288
TAP	30	0	3
TAP	30	96	3
HLD	30	192	6	288
TAP	31	0	4
TAP	31	96	4
HLD	31	192	1	288
TAP	32	0	2
TAP	32	96	2
HLD	32	192	6	288
TAP	33	0	5
TAP	33	96	5
HLD	33	192	1	288
TAP	34	0	0
TAP	34	96	0
HLD	34	192	6	288
TAP	35	0	7
TAP	35	96	7
STR	35	192	0
SXL	35	192	0	96	480	3
STR	37	192	7
SXR	37	192	7	96	480	4
STR	39	192	1
SLR	39	192	1	96	288	5
STR	41	0	6
SLL	41	0	6	96	288	2
BRK	42	192	0
BRK	42	192	7
TAP	43	192	2
TAP	43	288	2
TAP	43	288	3
TAP	44	0	2
TAP	44	96	2
TAP	44	96	3
TAP	44	192	5
TAP	44	288	4
TAP	44	288	5
TAP	45	0	5
TAP	45	96	4
TAP	45	96	5
TAP	45	192	2
TAP	45	288	2
TAP	45	288	3
TAP	46	0	5
TAP	46	96	4
TAP	46	96	5
TAP	46	192	3
TAP	46	192	4
TAP	46	288	2
TAP	46	288	5
TAP	47	0	3
TAP	47	0	4
TAP	47	192	2
TAP	47	288	2
TAP	48	0	2
TAP	48	0	3
TAP	48	96	2
TAP	48	96	3
TAP	48	192	5
TAP	48	288	5
TAP	49	0	4
TAP	49	0	5
TAP	49	96	4
TAP	49	96	5
TAP	49	192	3
TAP	49	288	4
TAP	50	0	2
TAP	50	96	5
TAP	50	192	3
TAP	50	288	4
BRK	51	0	3
BRK	51	0	4
TAP	51	192	2
TAP	51	288	2
TAP	51	288	3
TAP	52	0	1
TAP	52	0	4
TAP	52	96	2
TAP	52	96	3
TAP	52	192	5
TAP	52	288	4
TAP	52	288	5
TAP	53	0	3
TAP	53	0	6
TAP	53	96	4
TAP	53	96	5
TAP	53	192	2
TAP	53	288	2
TAP	53	288	3
TAP	54	0	5
TAP	54	96	4
TAP	54	96	5
TAP	54	192	3
TAP	54	192	4
TAP	54	288	2
TAP	54	288	5
TAP	55	0	1
TAP	55	0	6
HLD	55	192	2	96
TAP	55	288	3
HLD	56	0	5	96
TAP	56	96	4
HLD	56	192	1	96
TAP	56	288	3
HLD	57	0	6	96
TAP	57	96	4
TAP	57	192	2
TAP	57	192	3
TAP	57	288	2
TAP	57	288	3
TAP	58	0	4
TAP	58	0	5
TAP	58	96	4
TAP	58	96	5
TAP	58	192	3
TAP	58	288	4
TAP	59	0	2
TAP	59	96	5
TAP	59	192	3
TAP	59	192	4
TAP	60	0	2
TAP	60	0	3
TAP	60	192	3
TAP	60	192	4
TAP	61	0	4
TAP	61	0	5
TAP	61	192	3
TAP	61	192	4
TAP	62	0	1
TAP	62	0	3
TAP	62	192	3
TAP	62	192	4
TAP	63	0	4
TAP	63	0	6
TAP	63	192	3
TAP	63	192	4
TAP	64	0	0
TAP	64	0	2
TAP	64	192	3
TAP	64	192	4
TAP	65	0	5
TAP	65	0	7
TAP	65	192	3
TAP	65	192	4
TAP	66	0	0
TAP	66	0	1
TAP	66	192	3
TAP	66	192	4
TAP	66	288	2
TAP	66	288	5
BRK	67	0	1
BRK	67	0	6
TAP	69	192	1
TAP	69	288	0
TAP	69	288	1
TAP	70	0	1
TAP	70	96	0
TAP	70	96	1
TAP	70	192	6
TAP	70	288	6
TAP	70	288	7
TAP	71	0	6
TAP	71	96	6
TAP	71	96	7
TAP	71	192	1
TAP	71	288	0
TAP	71	288	1
TAP	72	0	6
TAP	72	96	6
TAP	72	96	7
TAP	72	192	0
TAP	72	192	7
TAP	72	288	1
TAP	72	288	6
TAP	73	0	0
TAP	73	0	7
TAP	73	192	1
TAP	73	288	1
TAP	74	0	0
TAP	74	0	1
TAP	74	96	0
TAP	74	96	1
TAP	74	192	6
TAP	74	288	6
TAP	75	0	6
TAP	75	0	7
TAP	75	96	6
TAP	75	96	7
TAP	75	192	0
TAP	75	288	7
TAP	76	0	1
TAP	76	96	6
TAP	76	192	0
TAP	76	288	7
BRK	77	0	0
BRK	77	0	7
TAP	77	192	1
TAP	77	288	0
TAP	77	288	1
TAP	78	0	2
TAP	78	0	7
TAP	78	96	0
TAP	78	96	1
TAP	78	192	6
TAP	78	288	6
TAP	78	288	7
TAP	79	0	0
TAP	79	0	5
TAP	79	96	6
TAP	79	96	7
TAP	79	192	1
TAP	79	288	0
TAP	79	288	1
TAP	80	0	6
TAP	80	96	6
TAP	80	96	7
TAP	80	192	0
TAP	80	192	7
TAP	80	288	1
TAP	80	288	6
TAP	81	0	2
TAP	81	0	5
HLD	81	192	1	96
TAP	81	288	0
HLD	82	0	6	96
TAP	82	96	7
HLD	82	192	2	96
TAP	82	288	0
HLD	83	0	5	96
TAP	83	96	7
TAP	83	192	0
TAP	83	192	1
TAP	83	288	0
TAP	83	288	1
TAP	84	0	6
TAP	84	0	7
TAP	84	96	6
TAP	84	96	7
TAP	84	192	0
TAP	84	288	7
TAP	85	0	1
TAP	85	96	6
TAP	85	192	0
TAP	85	192	7
TAP	85	288	0
TAP	85	288	7
TAP	86	0	1
TAP	86	0	6
TAP	86	96	1
TAP	86	96	6
TAP	86	192	0
TAP	86	192	7
TAP	86	288	0
TAP	86	288	7
BRK	87	0	0
BRK	87	0	7
TAP	87	192	1
TAP	87	288	1
TAP	88	0	2
TAP	88	96	2
TAP	88	192	3
TAP	88	288	3
TAP	89	0	4
TAP	89	0	5
TAP	89	96	4
TAP	89	96	5
TAP	89	192	6
TAP	89	288	6
TAP	90	0	5
TAP	90	96	5
TAP	90	192	4
TAP	90	288	4
TAP	91	0	2
TAP	91	0	3
TAP	91	96	2
TAP	91	96	3
TAP	91	192	2
TAP	91	288	2
TAP	92	0	1
TAP	92	96	1
TAP	92	192	0
TAP	92	288	0
TAP	93	0	6
TAP	93	0	7
TAP	93	96	6
TAP	93	96	7
TAP	93	192	5
TAP	93	288	5
TAP	94	0	6
TAP	94	96	6
TAP	94	192	7
TAP	94	288	7
TAP	95	0	0
TAP	95	0	1
TAP	95	96	0
TAP	95	96	1
TAP	95	192	2
TAP	95	288	1
TAP	96	0	0
TAP	96	96	7
TAP	96	192	6
TAP	96	288	5
TAP	97	0	3
TAP	97	0	4
TAP	97	96	3
TAP	97	96	4
TAP	97	192	5
TAP	97	288	6
TAP	98	0	7
TAP	98	96	0
TAP	98	192	1
TAP	98	288	2
TAP	99	0	3
TAP	99	0	4
TAP	99	96	3
TAP	99	96	4
TAP	99	192	6
TAP	99	288	5
TAP	100	0	4
TAP	100	96	3
TAP	100	192	2
TAP	100	288	1
TAP	101	0	0
TAP	101	0	7
TAP	101	96	0
TAP	101	96	7
TAP	101	192	1
TAP	101	288	2
TAP	102	0	3
TAP	102	96	4
TAP	102	192	5
TAP	102	288	6
TAP	103	0	0
TAP	103	0	7
BRK	103	96	0
BRK	103	96	7

T_REC_TAP	401
T_REC_BRK	12
T_REC_XTP	0
T_REC_HLD	16
T_REC_XHO	0
T_REC_STR	5
T_REC_BST	0
T_REC_XST	0
T_REC_TTP	0
T_REC_THO	0
T_REC_SLD	5
T_REC_ALL	439
T_NUM_TAP	406
T_NUM_BRK	12
T_NUM_HLD	16
T_NUM_SLD	5
T_NUM_ALL	439
T_JUDGE_TAP	418
T_JUDGE_HLD	64
T_JUDGE_SLD	5
T_JUDGE_ALL	487
TTM_EACHPAIRS	123
TTM_SCR_TAP	203000
TTM_SCR_BRK	31200
TTM_SCR_HLD	16000
TTM_SCR_SLD	7500
TTM_SCR_ALL	257700
TTM_SCR_S	248850
TTM_SCR_SS	256500
TTM_RAT_ACV	10046

