VERSION	0.00.00	1.03.00
FES_MODE	0
BPM_DEF	180.000	180.000	180.000	180.000
MET_DEF	4	4
RESOLUTION	384
CLK_DEF	384
COMPATIBLE_CODE	MA2

BPM	0	0	180.000
MET	0	0	4	4
MET	11	0	4	2
MET	11	192	4	4

TAP	5	0	0
TAP	6	0	2
TAP	7	0	4
TAP	8	0	6
TAP	11	192	7
TAP	12	0	7
TAP	12	192	7
TAP	12	288	7
TAP	13	0	7
TAP	13	192	0
TAP	14	0	0
TAP	14	192	0
TAP	14	288	0
TAP	15	0	0
TAP	15	192	7
TAP	16	0	7
TAP	16	192	7
TAP	16	288	7
TAP	17	0	7
TAP	17	192	0
TAP	18	0	0
TAP	18	192	0
TAP	18	288	0
TAP	19	0	0
TAP	19	192	1
TAP	20	0	1
TAP	20	192	2
TAP	21	0	2
TAP	21	192	3
TAP	22	0	3
TAP	22	192	3
TAP	22	192	4
TAP	23	0	3
TAP	23	0	4
TAP	23	192	5
TAP	24	0	5
TAP	24	192	6
TAP	25	0	6
TAP	25	192	7
TAP	26	0	7
TAP	26	192	0
TAP	26	192	7
TAP	27	0	0
TAP	27	0	7
TAP	27	192	7
TAP	28	0	7
TAP	28	192	6
TAP	28	288	6
TAP	29	0	6
TAP	29	192	5
TAP	30	0	5
TAP	30	192	4
TAP	30	288	4
TAP	31	0	3
TAP	31	0	4
TAP	31	192	3
TAP	32	0	2
TAP	32	0	3
TAP	32	192	1
TAP	33	0	0
TAP	33	0	1
TAP	33	192	0
TAP	33	288	0
TAP	34	0	0
TAP	34	192	7
TAP	34	288	7
TAP	35	0	7
STR	35	192	0
SI_	35	192	0	96	288	4
STR	37	192	7
SI_	37	192	7	96	288	3
STR	39	192	0
SI_	39	192	0	96	288	4
STR	41	192	7
SI_	41	192	7	96	288	3
TAP	43	192	0
TAP	43	288	0
TAP	44	0	1
TAP	44	96	1
TAP	44	192	2
TAP	44	288	2
TAP	45	0	2
TAP	45	0	3
TAP	45	192	4
TAP	45	288	4
TAP	46	0	5
TAP	46	96	5
TAP	46	192	6
TAP	46	288	6
TAP	47	0	6
TAP	47	0	7
HLD	47	192	7	192
HLD	48	192	0	192
TAP	49	192	0
TAP	49	192	1
TAP	50	0	0
TAP	50	0	1
TAP	50	192	6
TAP	50	192	7
TAP	51	0	6
TAP	51	0	7
TAP	51	192	7
TAP	51	288	7
TAP	52	0	6
TAP	52	96	6
TAP	52	192	5
TAP	52	288	5
TAP	53	0	4
TAP	53	0	5
TAP	53	192	3
TAP	53	288	3
TAP	54	0	2
TAP	54	96	2
TAP	54	192	1
TAP	54	288	1
TAP	55	0	0
TAP	55	0	1
HLD	55	192	0	192
HLD	56	192	7	192
TAP	57	192	6
TAP	57	192	7
TAP	58	0	6
TAP	58	0	7
TAP	58	192	0
TAP	58	192	1
TAP	59	0	0
TAP	59	0	1
TAP	59	192	0
TAP	60	0	0
TAP	60	192	1
TAP	60	288	1
TAP	61	0	1
TAP	61	192	7
TAP	62	0	7
TAP	62	192	6
TAP	62	288	6
TAP	63	0	6
TAP	63	192	5
TAP	64	0	5
TAP	64	192	4
TAP	64	288	4
TAP	65	0	4
TAP	65	192	2
TAP	66	0	2
TAP	66	192	3
TAP	66	288	3
TAP	67	0	3
BRK	67	192	3
BRK	67	192	4
TAP	69	192	4
TAP	69	288	4
TAP	70	0	5
TAP	70	96	5
TAP	70	192	6
TAP	70	288	6
TAP	71	0	6
TAP	71	0	7
TAP	71	192	0
TAP	71	288	0
TAP	72	0	1
TAP	72	96	1
TAP	72	192	2
TAP	72	288	2
TAP	73	0	2
TAP	73	0	3
HLD	73	192	4	192
HLD	74	192	3	192
TAP	75	192	4
TAP	75	192	5
TAP	76	0	4
TAP	76	0	5
TAP	76	192	2
TAP	76	192	3
TAP	77	0	2
TAP	77	0	3
TAP	77	192	3
TAP	77	288	3
TAP	78	0	2
TAP	78	96	2
TAP	78	192	1
TAP	78	288	1
TAP	79	0	0
TAP	79	0	1
TAP	79	192	7
TAP	79	288	7
TAP	80	0	6
TAP	80	96	6
TAP	80	192	5
TAP	80	288	5
TAP	81	0	4
TAP	81	0	5
HLD	81	192	3	192
HLD	82	192	4	192
TAP	83	192	2
TAP	83	192	3
TAP	84	0	2
TAP	84	0	3
TAP	84	192	4
TAP	84	192	5
TAP	85	0	4
TAP	85	0	5
TAP	85	192	3
TAP	85	192	4
TAP	86	0	3
TAP	86	0	4
TAP	86	192	3
TAP	86	288	4
TAP	87	0	3
TAP	87	192	3
TAP	87	288	3
TAP	88	0	3
TAP	88	192	2
TAP	88	288	2
TAP	89	0	2
TAP	89	192	1
TAP	89	288	1
TAP	90	0	1
TAP	90	192	0
TAP	90	288	0
TAP	91	0	0
TAP	91	0	7
TAP	91	192	7
TAP	91	288	7
TAP	92	0	7
TAP	92	192	6
TAP	92	288	6
TAP	93	0	6
TAP	93	192	5
TAP	93	288	5
TAP	94	0	5
TAP	94	192	4
TAP	94	288	4
TAP	95	0	3
TAP	95	0	4
TAP	95	192	4
TAP	95	288	4
TAP	96	0	4
TAP	96	192	5
TAP	96	288	5
TAP	97	0	5
TAP	97	192	6
TAP	97	288	6
TAP	98	0	6
TAP	98	192	7
TAP	98	288	7
TAP	99	0	0
TAP	99	0	7
TAP	99	192	0
TAP	99	288	0
TAP	100	0	0
TAP	100	192	1
TAP	100	288	1
TAP	101	0	1
TAP	101	192	2
TAP	101	288	2
TAP	102	0	2
TAP	102	192	3
TAP	102	288	3
TAP	103	0	4
TAP	103	96	4

T_REC_TAP	242
T_REC_BRK	2
T_REC_XTP	0
T_REC_HLD	8
T_REC_XHO	0
T_REC_STR	4
T_REC_BST	0
T_REC_XST	0
T_REC_TTP	0
T_REC_THO	0
T_REC_SLD	4
T_REC_ALL	260
T_NUM_TAP	246
T_NUM_BRK	2
T_NUM_HLD	8
T_NUM_SLD	4
T_NUM_ALL	260
T_JUDGE_TAP	248
T_JUDGE_HLD	32
T_JUDGE_SLD	4
T_JUDGE_ALL	284
TTM_EACHPAIRS	37
TTM_SCR_TAP	123000
TTM_SCR_BRK	5200
TTM_SCR_HLD	8000
TTM_SCR_SLD	6000
TTM_SCR_ALL	142200
TTM_SCR_S	137750
TTM_SCR_SS	142000
TTM_RAT_ACV	10014

