VERSION	0.00.00	1.03.00
FES_MODE	0
BPM_DEF	180.000	180.000	180.000	180.000
MET_DEF	4	4
RESOLUTION	384
CLK_DEF	384
COMPATIBLE_CODE	MA2

BPM	0	0	180.000
MET	0	0	4	4

STR	1	0	1
SI_	1	0	1	96	48	5
STR	1	96	0
SI_	1	96	0	96	48	4
TAP	1	96	1
TAP	1	192	0
HLD	1	192	7	96
TAP	1	288	6
HLD	1	336	6	96
TAP	2	48	4
HLD	2	96	4	96
HLD	2	192	2	96
TAP	2	288	0
STR	3	0	6
SI_	3	0	6	96	48	2
TAP	3	96	6
STR	3	96	7
SI_	3	96	7	96	48	3
HLD	3	192	0	96
TAP	3	192	7
TAP	3	288	1
HLD	3	336	1	96
TAP	4	48	3
HLD	4	96	3	96
TAP	4	192	5
TAP	4	216	6
TAP	4	240	7
TAP	4	264	0
TAP	4	288	1
TAP	4	288	5
TAP	5	0	0
TAP	5	48	1
TAP	5	48	7
TAP	5	96	2
TAP	5	96	6
TAP	5	144	2
TAP	5	168	3
TAP	5	216	5
TAP	5	240	4
TAP	5	288	1
TAP	5	288	6
TAP	6	0	7
TAP	6	48	0
TAP	6	48	6
TAP	6	96	1
TAP	6	96	5
TAP	6	144	5
TAP	6	168	4
TAP	6	216	2
TAP	6	240	3
TAP	6	288	1
TAP	6	288	6
TAP	7	0	3
TAP	7	48	2
TAP	7	48	4
TAP	7	96	1
TAP	7	96	5
TAP	7	144	6
TAP	7	168	7
TAP	7	216	1
TAP	7	240	0
TAP	7	288	1
TAP	7	288	6
TAP	8	0	4
TAP	8	48	3
TAP	8	48	5
TAP	8	96	2
TAP	8	96	6
TAP	8	144	1
TAP	8	168	0
TAP	8	216	6
TAP	8	240	7
TAP	8	288	0
TAP	8	312	7
TAP	8	336	0
TAP	9	0	1
TAP	9	48	0
TAP	9	48	2
TAP	9	96	3
TAP	9	96	7
TAP	9	144	3
TAP	9	168	4
TAP	9	216	0
TAP	9	240	7
TAP	9	288	1
TAP	9	288	6
TAP	10	0	6
TAP	10	48	5
TAP	10	48	7
TAP	10	96	0
TAP	10	96	4
TAP	10	144	4
TAP	10	168	3
TAP	10	216	7
TAP	10	240	0
TAP	10	288	1
TAP	10	288	6
TAP	11	0	2
TAP	11	48	1
TAP	11	48	3
TAP	11	96	0
TAP	11	96	4
TAP	11	144	0
TAP	11	168	7
TAP	11	216	1
TAP	11	240	2
TAP	11	288	3
TAP	11	288	4
TAP	12	0	5
TAP	12	48	4
TAP	12	48	6
TAP	12	96	3
TAP	12	96	7
TAP	12	144	7
TAP	12	168	0
TAP	12	216	6
TAP	12	240	5
TAP	12	288	4
TAP	12	312	3
TAP	12	336	4
TAP	13	0	2
STR	13	0	7
SI_	13	0	7	96	48	3
TAP	13	48	2
TAP	13	96	2
TAP	13	144	2
TAP	13	192	2
STR	13	192	3
SI_	13	192	3	96	48	6
TAP	13	240	2
TAP	13	288	2
TAP	13	336	2
TAP	14	0	2
STR	14	0	6
SI_	14	0	6	96	48	1
TAP	14	48	2
TAP	14	96	2
TAP	14	144	2
STR	14	192	1
SI_	14	192	1	96	48	5
TAP	14	192	2
TAP	14	240	2
TAP	14	288	2
TAP	14	336	2
STR	15	0	0
SI_	15	0	0	96	48	4
TAP	15	0	5
TAP	15	48	5
TAP	15	96	5
TAP	15	144	5
STR	15	192	4
SI_	15	192	4	96	48	1
TAP	15	192	5
TAP	15	240	5
TAP	15	288	5
TAP	15	336	5
STR	16	0	1
SI_	16	0	1	96	48	6
TAP	16	0	5
TAP	16	48	5
TAP	16	96	5
TAP	16	144	5
TAP	16	192	5
STR	16	192	6
SI_	16	192	6	96	48	2
TAP	16	240	5
TAP	16	288	5
TAP	16	336	5
TAP	17	0	2
STR	17	0	7
SV_	17	0	7	96	48	5
TAP	17	48	2
TAP	17	96	2
TAP	17	144	2
TAP	17	192	2
STR	17	192	5
SV_	17	192	5	96	48	3
TAP	17	240	2
TAP	17	288	2
TAP	17	336	2
TAP	18	0	2
STR	18	0	3
SV_	18	0	3	96	48	1
TAP	18	48	2
TAP	18	96	2
TAP	18	144	2
STR	18	192	1
SV_	18	192	1	96	48	7
TAP	18	192	2
TAP	18	240	2
TAP	18	288	2
TAP	19	0	1
TAP	19	48	5
TAP	19	72	4
TAP	19	96	6
TAP	19	144	2
TAP	19	168	3
TAP	19	192	1
TAP	19	240	7
TAP	19	264	0
TAP	19	288	1
TAP	19	288	6
TAP	20	0	3
TAP	20	24	4
TAP	20	48	2
TAP	20	72	5
TAP	20	96	3
TAP	20	120	4
TAP	20	144	2
TAP	20	168	5
TAP	20	192	3
TAP	20	216	5
TAP	20	240	2
TAP	20	264	4
TAP	20	288	3
TAP	20	312	5
TAP	20	336	2
TAP	20	360	4
STR	21	0	1
SLR	21	0	1	96	96	7
TAP	21	48	1
STR	21	96	7
SCR	21	96	7	96	96	3
TAP	21	144	7
TAP	21	192	5
TAP	21	240	5
TAP	21	288	5
STR	22	0	6
SLL	22	0	6	96	96	0
TAP	22	48	6
STR	22	96	0
SCL	22	96	0	96	96	4
TAP	22	144	0
TAP	22	192	2
TAP	22	240	2
TAP	22	288	2
STR	23	0	2
SLL	23	0	2	96	96	4
TAP	23	48	2
STR	23	96	4
SCL	23	96	4	96	96	0
TAP	23	144	4
TAP	23	192	6
TAP	23	240	6
TAP	23	288	6
STR	24	0	5
SLR	24	0	5	96	96	3
TAP	24	48	5
STR	24	96	3
SCR	24	96	3	96	96	7
TAP	24	144	3
TAP	24	192	1
TAP	24	240	1
TAP	24	288	1
STR	25	0	1
SLR	25	0	1	96	96	7
TAP	25	48	1
STR	25	96	7
SCR	25	96	7	96	96	3
TAP	25	144	7
STR	25	192	6
SCL	25	192	6	96	48	3
TAP	25	240	6
TAP	25	288	6
STR	26	0	6
SLL	26	0	6	96	96	0
TAP	26	48	6
STR	26	96	0
SCL	26	96	0	96	96	4
TAP	26	144	0
STR	26	192	1
SCR	26	192	1	96	48	4
TAP	26	240	1
TAP	26	288	1
STR	27	0	3
SV_	27	0	3	96	48	1
TAP	27	48	3
TAP	27	96	3
STR	27	192	7
SV_	27	192	7	96	48	5
TAP	27	240	7
TAP	27	288	7
TAP	28	0	3
TAP	28	48	2
TAP	28	48	6
TAP	28	96	1
TAP	28	96	5
TAP	28	144	0
TAP	28	144	4
TAP	28	192	3
TAP	28	192	7
TAP	28	240	0
TAP	28	240	4
TAP	28	288	1
TAP	28	288	5
TAP	28	336	2
TAP	28	336	6
STR	29	0	0
SCL	29	0	0	96	48	5
TAP	29	48	1
TAP	29	96	2
STR	29	144	3
SCL	29	144	3	96	48	0
TAP	29	192	4
TAP	29	240	5
STR	29	288	6
SCL	29	288	6	96	48	3
TAP	29	336	7
TAP	30	0	0
STR	30	48	1
SCR	30	48	1	96	48	4
TAP	30	96	0
TAP	30	144	7
TAP	30	192	6
TAP	30	240	3
TAP	30	264	4
TAP	30	288	2
TAP	30	312	5
TAP	30	336	1
STR	31	0	7
SCR	31	0	7	96	48	2
TAP	31	48	6
TAP	31	96	5
STR	31	144	4
SCR	31	144	4	96	48	7
TAP	31	192	3
TAP	31	240	2
STR	31	288	1
SCR	31	288	1	96	48	4
TAP	31	336	0
TAP	32	0	7
STR	32	48	6
SCL	32	48	6	96	48	3
TAP	32	96	7
TAP	32	144	0
TAP	32	192	1
TAP	32	240	4
TAP	32	264	3
TAP	32	288	5
TAP	32	312	2
TAP	32	336	6
STR	33	0	0
SUL	33	0	0	96	48	4
TAP	33	48	1
TAP	33	96	2
STR	33	144	3
SUL	33	144	3	96	48	7
TAP	33	192	4
TAP	33	240	5
STR	33	288	6
SUL	33	288	6	96	48	2
TAP	33	336	7
TAP	34	0	0
STR	34	48	1
SUR	34	48	1	96	48	5
TAP	34	96	0
TAP	34	144	7
TAP	34	192	6
TAP	34	240	0
TAP	34	264	7
TAP	34	288	0
TAP	34	336	1
TAP	34	336	6
STR	35	0	7
SUR	35	0	7	96	48	3
TAP	35	48	6
TAP	35	96	5
STR	35	144	4
SUR	35	144	4	96	48	0
TAP	35	192	3
TAP	35	240	2
TAP	35	288	1
TAP	35	336	7
TAP	36	0	1
TAP	36	0	5
TAP	36	48	2
TAP	36	48	6
TAP	36	96	3
TAP	36	96	7
TAP	36	144	0
TAP	36	144	4
TAP	36	192	0
TAP	36	192	4
TAP	36	240	3
TAP	36	240	7
TAP	36	288	2
TAP	36	288	6
TAP	36	336	1
TAP	36	336	5
STR	37	0	0
SCL	37	0	0	96	48	4
SCR	37	0	0	96	48	4
TAP	37	96	0
STR	37	192	4
SCR	37	192	4	96	48	7
TAP	37	240	3
TAP	37	288	2
TAP	37	336	1
BST	38	0	0
SI_	38	0	0	96	48	2
SI_	38	0	0	96	48	6
BST	38	96	0
SF_	38	96	0	96	48	4
BRK	38	192	0
STR	39	0	7
SCL	39	0	7	96	48	3
SCR	39	0	7	96	48	3
TAP	39	96	7
STR	39	192	3
SCL	39	192	3	96	48	0
TAP	39	240	4
TAP	39	288	5
TAP	39	336	6
BST	40	0	7
SI_	40	0	7	96	48	3
BST	40	96	7
SI_	40	96	7	96	48	1
SI_	40	96	7	96	48	5
BST	40	192	7
SF_	40	192	7	96	48	3
BRK	40	288	7
STR	41	0	0
SI_	41	0	0	96	48	3
SI_	41	0	0	96	48	5
TAP	41	96	0
STR	41	192	1
SCL	41	192	1	96	48	5
STR	41	240	5
SCL	41	240	5	96	48	1
BST	42	0	7
SI_	42	0	7	96	48	3
BST	42	96	7
SXL	42	96	7	96	144	2
SXR	42	96	7	96	144	4
BRK	42	192	7
STR	43	0	7
SI_	43	0	7	96	48	2
SI_	43	0	7	96	48	4
TAP	43	96	7
STR	43	192	6
SCR	43	192	6	96	48	2
STR	43	240	2
SCR	43	240	2	96	48	6
BST	44	0	0
SI_	44	0	0	96	48	4
BST	44	96	0
SI_	44	96	0	96	48	2
SI_	44	96	0	96	48	6
BST	44	192	0
SF_	44	192	0	96	48	4
BRK	44	288	0
TAP	45	0	0
HLD	45	48	1	96
HLD	45	144	2	96
HLD	45	240	4	96
HLD	45	288	5	96
TAP	46	0	6
TAP	46	48	5
TAP	46	96	4
TAP	46	144	3
TAP	46	192	2
TAP	46	240	1
TAP	46	288	0
TAP	46	336	7
TAP	47	0	6
HLD	47	48	6	96
HLD	47	144	5	96
HLD	47	240	3	96
HLD	47	288	2	96
TAP	48	0	1
TAP	48	48	2
TAP	48	96	3
TAP	48	144	4
STR	48	192	5
SI_	48	192	5	96	48	1
TAP	48	288	5
TAP	48	288	6
TAP	49	0	4
HLD	49	48	5	96
HLD	49	144	6	96
HLD	49	240	0	96
HLD	49	288	1	96
TAP	50	0	2
TAP	50	48	1
TAP	50	96	0
TAP	50	144	7
TAP	50	192	6
TAP	50	240	5
TAP	50	288	4
TAP	50	336	3
TAP	51	0	2
HLD	51	48	2	96
HLD	51	144	1	96
HLD	51	240	7	96
HLD	51	288	6	96
TAP	52	0	5
TAP	52	48	6
TAP	52	96	7
TAP	52	144	0
STR	52	192	1
SI_	52	192	1	96	48	5
TAP	52	288	1
TAP	52	288	2
TAP	53	0	3
TAP	53	0	4
TAP	53	48	2
TAP	53	48	5
TAP	53	144	0
TAP	53	144	1
TAP	53	192	2
TAP	53	192	7
TAP	53	240	4
TAP	53	240	5
TAP	53	336	6
TAP	53	336	7
STR	54	0	0
SUR	54	0	0	96	48	4
TAP	54	0	5
STR	54	96	4
SUR	54	96	4	96	48	0
STR	54	192	0
SCL	54	192	0	96	48	5
SCR	54	192	0	96	48	2
TAP	55	0	0
TAP	55	24	7
TAP	55	48	1
TAP	55	72	6
TAP	55	96	3
TAP	55	120	4
TAP	55	144	2
TAP	55	168	5
TAP	55	192	0
TAP	55	216	6
TAP	55	240	1
TAP	55	264	7
STR	55	288	2
SCL	55	288	2	96	96	7
TAP	55	312	4
TAP	55	336	3
TAP	55	360	5
STR	56	0	7
SUL	56	0	7	96	96	3
STR	56	96	3
SUL	56	96	3	96	96	7
STR	56	192	7
SCL	56	192	7	96	96	3
HLD	57	0	7	96
HLD	57	96	5	96
HLD	57	192	6	96
TAP	57	288	0
TAP	57	336	2
HLD	58	0	1	96
HLD	58	96	3	96
HLD	58	192	5	96
TAP	58	288	7
TAP	58	336	0
TAP	58	336	6
HLD	59	0	1	96
TAP	59	0	5
HLD	59	96	3	96
HLD	59	192	2	96
TAP	59	288	6
TAP	59	336	4
HLD	60	0	5	96
HLD	60	96	4	96
HLD	60	192	2	96
TAP	60	288	0
TAP	60	336	1
TAP	60	336	7
TAP	61	0	2
TAP	61	0	6
TAP	61	48	3
TAP	61	48	5
STR	61	96	4
SI_	61	96	4	96	48	1
SI_	61	96	4	96	48	7
TAP	61	192	4
TAP	61	288	0
TAP	61	336	1
TAP	61	336	7
TAP	62	0	2
TAP	62	0	6
STR	62	96	3
SI_	62	96	3	96	48	0
SI_	62	96	3	96	48	6
TAP	62	192	3
TAP	62	288	7
TAP	62	336	0
TAP	62	336	6
TAP	63	0	1
TAP	63	0	5
TAP	63	48	2
TAP	63	48	4
STR	63	96	3
SI_	63	96	3	96	48	7
TAP	63	192	3
TAP	63	288	0
TAP	63	288	6
TAP	63	336	1
TAP	63	336	5
TAP	64	0	2
TAP	64	0	4
STR	64	96	7
SI_	64	96	7	96	48	3
STR	64	192	3
SF_	64	192	3	96	48	7
TAP	65	0	0
TAP	65	24	7
TAP	65	48	0
TAP	65	96	2
TAP	65	96	5
TAP	65	144	7
TAP	65	168	0
TAP	65	192	7
TAP	65	240	2
TAP	65	240	5
TAP	65	288	0
TAP	65	288	7
TAP	66	0	4
TAP	66	24	3
TAP	66	48	4
TAP	66	96	1
TAP	66	96	6
TAP	66	144	3
TAP	66	168	4
TAP	66	192	3
TAP	66	240	1
TAP	66	240	6
TAP	66	288	3
TAP	66	288	4
TAP	67	0	2
TAP	67	24	3
TAP	67	48	2
TAP	67	96	0
TAP	67	96	5
TAP	67	144	5
TAP	67	168	4
TAP	67	192	5
TAP	67	240	2
TAP	67	240	7
TAP	67	288	4
TAP	67	288	5
TAP	68	0	6
TAP	68	24	7
TAP	68	48	6
TAP	68	96	1
TAP	68	96	4
TAP	68	144	1
TAP	68	168	0
TAP	68	192	1
TAP	68	216	0
TAP	68	240	1
TAP	68	288	3
TAP	68	288	6
TAP	69	0	2
TAP	69	24	3
TAP	69	48	1
TAP	69	96	3
TAP	69	96	7
TAP	69	144	5
TAP	69	168	4
TAP	69	192	6
TAP	69	216	4
TAP	69	240	5
TAP	69	288	1
TAP	69	312	0
TAP	69	336	2
TAP	70	0	5
TAP	70	24	4
TAP	70	48	6
TAP	70	96	0
TAP	70	96	4
TAP	70	144	2
TAP	70	168	3
TAP	70	192	1
TAP	70	216	3
TAP	70	240	2
TAP	70	288	6
TAP	70	312	7
TAP	70	336	5
TAP	71	0	0
TAP	71	24	6
TAP	71	48	0
TAP	71	96	2
TAP	71	96	4
TAP	71	144	7
TAP	71	168	1
TAP	71	192	5
TAP	71	216	3
TAP	71	240	7
TAP	71	288	4
TAP	71	312	3
TAP	71	336	4
TAP	72	0	2
TAP	72	0	3
TAP	72	48	2
TAP	72	48	3
TAP	72	96	4
TAP	72	96	5
TAP	72	144	4
TAP	72	144	5
TAP	72	192	2
TAP	72	192	3
TAP	72	240	1
TAP	72	240	3
TAP	72	288	4
TAP	72	288	5
TAP	72	336	4
TAP	72	336	6
TAP	73	0	0
TAP	73	24	6
TAP	73	48	2
TAP	73	72	4
TAP	73	96	0
TAP	73	144	7
TAP	73	168	1
TAP	73	192	5
TAP	73	216	3
TAP	73	240	7
TAP	73	288	0
TAP	73	288	7
TAP	73	312	1
TAP	73	312	6
TAP	73	336	2
TAP	73	336	5
TAP	74	0	7
TAP	74	24	1
TAP	74	48	5
TAP	74	72	3
TAP	74	96	7
TAP	74	144	0
TAP	74	168	6
TAP	74	192	2
TAP	74	216	4
TAP	74	240	0
TAP	74	288	0
TAP	74	288	7
TAP	74	312	1
TAP	74	312	6
TAP	74	336	2
TAP	74	336	5
TAP	75	0	0
TAP	75	24	4
TAP	75	48	1
TAP	75	72	5
TAP	75	96	2
TAP	75	144	6
TAP	75	168	2
TAP	75	192	5
TAP	75	216	1
TAP	75	240	4
TAP	75	288	1
TAP	75	288	6
TAP	75	312	2
TAP	75	312	5
TAP	75	336	3
TAP	75	336	4
TAP	76	0	7
TAP	76	24	3
TAP	76	48	6
TAP	76	72	2
TAP	76	96	5
TAP	76	144	1
TAP	76	168	5
TAP	76	192	2
TAP	76	216	6
TAP	76	240	3
TAP	76	288	1
TAP	76	288	6
TAP	76	312	2
TAP	76	312	5
TAP	76	336	3
TAP	76	336	4
TAP	77	0	1
TAP	77	24	5
TAP	77	48	3
TAP	77	72	7
TAP	77	96	0
TAP	77	144	6
TAP	77	168	2
TAP	77	192	4
TAP	77	216	0
TAP	77	240	7
TAP	77	288	0
TAP	77	288	1
TAP	77	312	2
TAP	77	312	7
TAP	77	336	3
TAP	77	336	6
TAP	78	0	5
TAP	78	24	1
TAP	78	48	7
TAP	78	72	3
TAP	78	96	4
TAP	78	144	2
TAP	78	168	6
TAP	78	192	0
TAP	78	216	4
TAP	78	240	3
TAP	78	288	6
TAP	78	288	7
TAP	78	312	0
TAP	78	312	5
TAP	78	336	1
TAP	78	336	4
TAP	79	0	1
TAP	79	24	0
TAP	79	48	2
TAP	79	72	4
TAP	79	96	3
TAP	79	144	6
TAP	79	168	7
TAP	79	192	5
TAP	79	216	3
TAP	79	240	4
TAP	79	288	0
TAP	79	288	1
TAP	79	312	2
TAP	79	312	7
TAP	79	336	3
TAP	79	336	6
TAP	80	0	0
TAP	80	24	1
TAP	80	48	2
TAP	80	72	3
TAP	80	96	7
TAP	80	120	6
TAP	80	144	5
TAP	80	168	4
TAP	80	192	1
TAP	80	216	2
TAP	80	240	3
TAP	80	264	4
TAP	80	288	0
TAP	80	312	7
TAP	80	336	6
TAP	80	360	5
HLD	81	0	0	48
HLD	81	0	4	48
HLD	81	96	0	48
HLD	81	96	4	48
HLD	81	192	2	48
HLD	81	192	6	48
HLD	81	288	2	48
HLD	81	288	6	48
TAP	82	0	2
TAP	82	48	6
TAP	82	96	1
TAP	82	144	5
TAP	82	192	0
TAP	82	240	4
TAP	82	288	7
TAP	82	336	3
HLD	83	0	1	48
HLD	83	0	5	48
HLD	83	96	1	48
HLD	83	96	5	48
HLD	83	192	3	48
HLD	83	192	7	48
HLD	83	288	3	48
HLD	83	288	7	48
TAP	84	0	3
TAP	84	48	7
TAP	84	96	2
TAP	84	144	6
TAP	84	192	1
TAP	84	240	5
TAP	84	288	0
TAP	84	336	4
TAP	85	0	3
TAP	85	24	4
TAP	85	48	2
TAP	85	72	5
TAP	85	96	3
TAP	85	120	5
TAP	85	144	2
TAP	85	168	4
TAP	85	192	3
TAP	85	216	4
TAP	85	240	2
TAP	85	264	5
TAP	85	288	3
TAP	85	288	4
TAP	86	0	7
TAP	86	24	0
TAP	86	48	6
TAP	86	72	1
TAP	86	96	7
TAP	86	120	1
TAP	86	144	6
TAP	86	168	0
TAP	86	192	7
TAP	86	216	0
TAP	86	240	6
TAP	86	264	1
TAP	86	288	0
TAP	86	288	7
TAP	87	0	3
TAP	87	24	4
TAP	87	48	2
TAP	87	72	5
TAP	87	96	0
TAP	87	120	7
TAP	87	144	1
TAP	87	168	6
TAP	87	192	3
TAP	87	216	5
TAP	87	240	2
TAP	87	264	4
TAP	87	288	0
TAP	87	312	6
TAP	87	336	1
TAP	87	360	7
TAP	88	0	0
TAP	88	12	1
TAP	88	24	2
TAP	88	36	3
TAP	88	48	4
TAP	88	60	5
TAP	88	72	6
TAP	88	84	7
TAP	88	96	0
TAP	88	108	1
TAP	88	120	2
TAP	88	132	3
TAP	88	144	4
TAP	88	156	5
TAP	88	168	6
TAP	88	180	7
TAP	88	192	0
TAP	88	204	1
TAP	88	216	2
TAP	88	228	3
TAP	88	240	4
TAP	88	252	5
TAP	88	264	6
TAP	88	276	7
TAP	88	288	0
TAP	88	300	1
TAP	88	312	2
TAP	88	324	3
TAP	88	336	4
TAP	88	348	5
TAP	88	360	6
TAP	88	372	7
STR	89	0	0
SCL	89	0	0	96	48	5
TAP	89	96	0
STR	89	192	0
SCR	89	192	0	96	48	3
TAP	89	288	0
STR	90	0	1
SI_	90	0	1	96	48	5
STR	90	96	0
SI_	90	96	0	96	48	4
TAP	90	96	1
TAP	90	192	0
STR	90	192	7
SI_	90	192	7	96	48	3
TAP	90	288	6
TAP	90	288	7
TAP	91	0	4
TAP	91	48	3
TAP	91	48	5
TAP	91	96	3
TAP	91	144	2
TAP	91	144	4
TAP	91	192	5
TAP	91	240	4
TAP	91	240	6
TAP	91	288	2
TAP	91	336	1
TAP	91	336	3
TAP	92	0	5
TAP	92	24	4
TAP	92	48	5
TAP	92	96	0
TAP	92	120	7
TAP	92	144	0
TAP	92	192	3
TAP	92	216	2
TAP	92	240	3
TAP	92	288	0
TAP	92	312	7
TAP	92	336	0
TAP	93	0	7
TAP	93	24	0
TAP	93	48	6
TAP	93	72	1
TAP	93	96	5
TAP	93	120	2
TAP	93	144	4
TAP	93	168	3
TAP	93	192	4
TAP	93	216	3
TAP	93	240	5
TAP	93	264	2
TAP	93	288	6
TAP	93	312	1
TAP	93	336	7
TAP	93	360	0
TAP	94	0	7
TAP	94	12	6
TAP	94	24	5
TAP	94	36	4
TAP	94	48	3
TAP	94	60	2
TAP	94	72	1
TAP	94	84	0
TAP	94	96	7
TAP	94	108	6
TAP	94	120	5
TAP	94	132	4
TAP	94	144	3
TAP	94	156	2
TAP	94	168	1
TAP	94	180	0
TAP	94	192	7
TAP	94	204	6
TAP	94	216	5
TAP	94	228	4
TAP	94	240	3
TAP	94	252	2
TAP	94	264	1
TAP	94	276	0
TAP	94	288	7
TAP	94	300	6
TAP	94	312	5
TAP	94	324	4
TAP	94	336	3
TAP	94	348	2
TAP	94	360	1
TAP	94	372	0
HLD	95	0	7	96
HLD	95	144	0	96
HLD	95	144	6	96
TAP	95	288	1
TAP	95	288	5
STR	96	0	1
SCR	96	0	1	96	48	4
TAP	96	48	0
TAP	96	96	7
TAP	96	144	6
STR	96	192	6
SCL	96	192	6	96	48	3
TAP	96	240	7
TAP	96	288	0
TAP	96	336	1
TAP	97	0	4
TAP	97	24	3
TAP	97	48	4
STR	97	96	3
SLL	97	96	3	96	96	5
STR	97	96	6
SLR	97	96	6	96	96	4
TAP	97	192	3
TAP	97	192	6
TAP	97	336	1
TAP	97	336	6
TAP	98	0	3
TAP	98	24	4
TAP	98	48	3
STR	98	96	1
SLL	98	96	1	96	96	3
STR	98	96	4
SLR	98	96	4	96	96	2
TAP	98	192	1
TAP	98	192	4
BRK	99	0	0
BRK	99	0	7
BRK	99	8	1
BRK	99	8	6
BRK	99	16	2
BRK	99	16	5
BRK	99	24	3
BRK	99	24	4

T_REC_TAP	817
T_REC_BRK	12
T_REC_XTP	0
T_REC_HLD	54
T_REC_XHO	0
T_REC_STR	81
T_REC_BST	10
T_REC_XST	0
T_REC_TTP	0
T_REC_THO	0
T_REC_SLD	102
T_REC_ALL	1076
T_NUM_TAP	898
T_NUM_BRK	22
T_NUM_HLD	54
T_NUM_SLD	102
T_NUM_ALL	1076
T_JUDGE_TAP	920
T_JUDGE_HLD	92
T_JUDGE_SLD	102
T_JUDGE_ALL	1114
TTM_EACHPAIRS	149
TTM_SCR_TAP	449000
TTM_SCR_BRK	57200
TTM_SCR_HLD	54000
TTM_SCR_SLD	153000
TTM_SCR_ALL	713200
TTM_SCR_S	689700
TTM_SCR_SS	711000
TTM_RAT_ACV	10030

