VERSION	0.00.00	1.03.00
FES_MODE	0
BPM_DEF	180.000	180.000	180.000	180.000
MET_DEF	4	4
RESOLUTION	384
CLK_DEF	384
COMPATIBLE_CODE	MA2

BPM	0	0	180.000
MET	0	0	4	4

TAP	1	0	0
TAP	1	96	1
TAP	1	192	2
TAP	1	288	3
TAP	1	288	4
TAP	1	336	3
TAP	1	336	4
TAP	2	96	5
TAP	2	192	3
TAP	2	288	1
TAP	3	0	7
TAP	3	96	6
TAP	3	192	5
TAP	3	288	3
TAP	3	288	4
STR	3	336	3
SCL	3	336	3	96	240	4
TAP	3	336	4
TAP	5	0	2
TAP	5	96	1
TAP	5	96	3
TAP	5	192	5
TAP	5	288	4
TAP	5	288	6
TAP	6	0	1
TAP	6	96	0
TAP	6	96	2
TAP	6	192	6
TAP	6	240	7
TAP	6	288	6
TAP	7	0	5
TAP	7	96	4
TAP	7	96	6
TAP	7	192	2
TAP	7	288	1
TAP	7	288	3
TAP	8	0	6
TAP	8	96	5
TAP	8	96	7
TAP	8	192	1
TAP	8	240	0
TAP	8	288	1
TAP	9	0	2
TAP	9	96	0
TAP	9	96	6
TAP	9	192	5
TAP	9	288	1
TAP	9	288	7
TAP	10	0	3
TAP	10	0	4
TAP	10	96	1
TAP	10	96	6
TAP	10	192	3
TAP	10	240	4
TAP	10	288	3
TAP	11	0	3
TAP	11	0	4
TAP	11	96	2
TAP	11	96	5
TAP	11	192	1
TAP	11	192	6
TAP	11	288	0
TAP	11	288	7
TAP	12	0	0
TAP	12	48	0
TAP	12	96	7
TAP	12	144	7
TAP	12	192	0
TAP	12	216	7
TAP	12	240	0
TAP	12	264	7
TAP	12	288	0
TAP	13	0	4
TAP	13	0	5
TAP	13	96	5
HLD	13	144	5	96
TAP	13	240	4
TAP	13	288	4
TAP	14	0	2
TAP	14	0	3
TAP	14	96	2
HLD	14	144	2	96
TAP	14	240	3
TAP	14	288	3
TAP	15	0	3
TAP	15	0	6
TAP	15	96	5
HLD	15	144	5	96
TAP	15	240	4
TAP	15	288	4
TAP	16	0	1
TAP	16	0	4
TAP	16	96	2
HLD	16	144	2	96
TAP	16	240	3
TAP	16	288	3
TAP	17	0	3
TAP	17	0	6
TAP	17	96	5
HLD	17	144	5	96
TAP	17	240	6
TAP	17	288	6
TAP	18	0	1
TAP	18	0	4
TAP	18	96	2
HLD	18	144	2	96
TAP	18	240	1
TAP	18	288	1
TAP	19	0	3
TAP	19	0	6
TAP	19	96	5
HLD	19	144	5	96
TAP	19	240	7
TAP	19	288	7
TAP	20	0	1
TAP	20	0	4
TAP	20	96	2
HLD	20	144	2	96
TAP	20	240	0
TAP	20	288	0
TAP	21	0	7
TAP	21	96	1
TAP	21	192	2
TAP	21	192	3
TAP	21	288	5
TAP	21	288	7
TAP	22	0	0
TAP	22	96	6
TAP	22	192	4
TAP	22	192	5
TAP	22	288	0
TAP	22	288	2
TAP	23	0	7
TAP	23	96	1
TAP	23	192	2
TAP	23	192	3
TAP	23	288	5
TAP	23	288	7
TAP	24	0	0
TAP	24	96	6
TAP	24	192	4
TAP	24	192	5
TAP	24	288	0
TAP	24	288	2
TAP	25	0	3
TAP	25	96	1
TAP	25	96	3
TAP	25	192	4
TAP	25	192	5
TAP	25	288	0
TAP	25	288	2
TAP	26	0	4
TAP	26	96	4
TAP	26	96	6
TAP	26	192	2
TAP	26	192	3
TAP	26	288	5
TAP	26	288	7
TAP	27	0	3
TAP	27	0	4
TAP	27	96	1
TAP	27	96	6
TAP	27	192	4
TAP	27	192	5
TAP	27	288	0
TAP	27	288	2
TAP	28	0	2
TAP	28	0	3
TAP	28	96	5
TAP	28	96	7
TAP	28	192	3
TAP	28	192	4
TAP	28	288	1
TAP	28	288	6
TAP	29	0	2
TAP	29	48	3
TAP	29	96	2
TAP	29	144	5
TAP	29	192	4
TAP	29	240	5
TAP	29	288	2
TAP	29	336	3
TAP	30	0	2
TAP	30	48	5
TAP	30	96	4
TAP	30	144	5
TAP	30	240	3
TAP	30	264	4
TAP	30	288	3
TAP	31	0	5
TAP	31	48	4
TAP	31	96	6
TAP	31	144	2
TAP	31	192	3
TAP	31	240	1
TAP	31	288	5
TAP	31	336	4
TAP	32	0	6
TAP	32	48	2
TAP	32	96	3
TAP	32	144	1
TAP	32	192	5
TAP	32	240	3
TAP	32	264	4
TAP	32	288	3
TAP	33	0	6
TAP	33	48	4
TAP	33	96	7
TAP	33	144	1
TAP	33	192	3
TAP	33	240	0
TAP	33	288	6
TAP	33	336	4
TAP	34	0	7
TAP	34	48	1
TAP	34	96	3
TAP	34	144	0
TAP	34	192	6
TAP	34	240	3
TAP	34	264	4
TAP	34	288	3
TAP	35	0	2
TAP	35	48	4
TAP	35	96	0
TAP	35	144	5
TAP	35	192	3
TAP	35	240	7
TAP	35	288	2
TAP	35	336	4
TAP	36	0	0
TAP	36	48	5
TAP	36	96	3
TAP	36	144	7
TAP	36	192	2
TAP	36	240	5
TAP	36	288	1
TAP	36	336	6
STR	37	0	0
SI_	37	0	0	96	48	3
TAP	37	96	0
TAP	37	192	6
TAP	37	240	6
TAP	37	288	0
TAP	37	336	6
STR	38	0	0
SI_	38	0	0	96	48	3
STR	38	96	0
SI_	38	96	0	96	48	5
BRK	38	192	0
STR	39	0	7
SI_	39	0	7	96	48	4
TAP	39	96	7
TAP	39	192	1
TAP	39	240	1
TAP	39	288	7
TAP	39	336	1
STR	40	0	7
SI_	40	0	7	96	48	4
STR	40	96	7
SI_	40	96	7	96	48	2
BRK	40	192	7
STR	41	0	0
SI_	41	0	0	96	48	4
TAP	41	96	0
TAP	41	192	6
TAP	41	240	6
TAP	41	288	3
TAP	41	336	6
STR	42	0	0
SCR	42	0	0	96	48	3
STR	42	96	0
SCL	42	96	0	96	48	5
BRK	42	192	0
STR	43	0	7
SI_	43	0	7	96	48	3
TAP	43	96	7
TAP	43	192	1
TAP	43	240	1
TAP	43	288	3
TAP	43	336	1
STR	44	0	7
SCL	44	0	7	96	48	4
STR	44	96	7
SCR	44	96	7	96	48	2
BRK	44	192	7
HLD	45	0	1	96
TAP	45	96	2
HLD	45	144	2	96
TAP	45	240	3
HLD	45	288	3	96
TAP	46	0	4
TAP	46	96	0
TAP	46	96	1
TAP	46	192	6
TAP	46	240	4
TAP	46	288	5
HLD	47	0	6	96
TAP	47	96	5
HLD	47	144	5	96
TAP	47	240	4
HLD	47	288	4	96
TAP	48	0	3
TAP	48	96	6
TAP	48	96	7
TAP	48	192	1
TAP	48	240	3
TAP	48	288	2
HLD	49	0	1	96
TAP	49	96	3
HLD	49	144	3	96
TAP	49	240	5
HLD	49	288	5	96
TAP	50	0	7
TAP	50	96	2
TAP	50	96	3
TAP	50	192	0
TAP	50	192	7
TAP	50	240	1
TAP	50	240	6
TAP	50	288	2
TAP	50	288	5
HLD	51	0	6	96
TAP	51	96	4
HLD	51	144	4	96
TAP	51	240	2
HLD	51	288	2	96
TAP	52	0	0
TAP	52	96	4
TAP	52	96	5
TAP	52	192	0
TAP	52	192	7
TAP	52	240	1
TAP	52	240	6
TAP	52	288	2
TAP	52	288	5
TAP	53	0	0
HLD	53	0	1	96
TAP	53	96	2
HLD	53	144	2	96
TAP	53	240	3
HLD	53	288	3	96
TAP	54	0	4
TAP	54	96	1
TAP	54	96	2
TAP	54	192	5
TAP	54	192	7
TAP	54	288	2
TAP	54	288	4
HLD	55	0	6	96
TAP	55	0	7
TAP	55	96	5
HLD	55	144	5	96
TAP	55	240	4
HLD	55	288	4	96
TAP	56	0	3
TAP	56	96	5
TAP	56	96	6
TAP	56	192	0
TAP	56	192	2
TAP	56	288	3
TAP	56	288	5
BST	57	0	0
SCR	57	0	0	96	480	7
BST	57	0	7
SCL	57	0	7	96	480	0
TAP	59	96	1
TAP	59	192	2
TAP	59	288	3
TAP	60	96	6
TAP	60	192	5
TAP	60	288	4
TAP	61	96	0
TAP	61	96	1
TAP	61	192	2
TAP	61	192	7
TAP	61	288	3
TAP	61	288	6
TAP	62	96	6
TAP	62	96	7
TAP	62	192	0
TAP	62	192	5
TAP	62	288	1
TAP	62	288	4
TAP	63	96	3
TAP	63	96	4
TAP	63	192	2
TAP	63	192	5
TAP	63	288	1
TAP	63	288	6
TAP	64	96	0
TAP	64	96	7
TAP	64	192	1
TAP	64	192	6
TAP	65	0	0
TAP	65	48	7
TAP	65	96	0
TAP	65	192	1
TAP	65	192	3
TAP	65	288	4
TAP	65	288	6
TAP	66	0	2
TAP	66	0	4
TAP	66	48	3
TAP	66	96	3
TAP	66	144	2
TAP	66	144	4
TAP	66	192	3
TAP	66	240	3
TAP	66	288	1
TAP	66	288	5
TAP	67	0	3
TAP	67	0	5
TAP	67	48	4
TAP	67	96	4
TAP	67	144	3
TAP	67	144	5
TAP	67	192	4
TAP	67	240	4
TAP	67	288	2
TAP	67	288	6
TAP	68	0	1
TAP	68	0	7
TAP	68	48	0
TAP	68	96	0
TAP	68	144	1
TAP	68	144	7
TAP	68	192	0
TAP	68	240	0
TAP	68	288	2
TAP	68	288	6
TAP	69	0	7
TAP	69	48	0
TAP	69	96	7
TAP	69	192	4
TAP	69	192	6
TAP	69	288	1
TAP	69	288	3
TAP	70	0	5
TAP	70	0	7
TAP	70	48	6
TAP	70	96	6
TAP	70	144	5
TAP	70	144	7
TAP	70	192	6
TAP	70	240	6
TAP	70	288	0
TAP	70	288	4
TAP	71	0	0
TAP	71	0	2
TAP	71	48	1
TAP	71	96	1
TAP	71	144	0
TAP	71	144	2
TAP	71	192	1
TAP	71	240	1
TAP	71	288	3
TAP	71	288	7
STR	72	0	6
SLL	72	0	6	96	96	0
STR	72	192	1
SLR	72	192	1	96	96	7
TAP	73	0	6
TAP	73	48	6
TAP	73	96	7
TAP	73	144	0
STR	73	144	6
SCL	73	144	6	96	48	3
TAP	74	0	1
TAP	74	48	1
TAP	74	96	0
STR	74	144	1
SCR	74	144	1	96	48	4
TAP	74	144	7
TAP	75	0	6
TAP	75	48	6
TAP	75	96	7
TAP	75	144	0
STR	75	144	7
SI_	75	144	7	96	48	4
TAP	75	288	3
TAP	75	336	2
STR	76	0	1
SI_	76	0	1	96	48	5
STR	76	96	0
SI_	76	96	0	96	48	4
STR	76	192	7
SI_	76	192	7	96	48	3
TAP	76	288	6
TAP	77	0	5
TAP	77	48	5
TAP	77	96	3
TAP	77	96	6
STR	77	144	4
SI_	77	144	4	96	48	1
SI_	77	144	4	96	48	7
TAP	77	144	5
TAP	78	0	2
TAP	78	48	2
TAP	78	96	1
TAP	78	96	4
TAP	78	144	2
STR	78	144	3
SI_	78	144	3	96	48	0
SI_	78	144	3	96	48	6
TAP	79	0	0
TAP	79	0	7
TAP	79	48	0
TAP	79	48	7
TAP	79	96	1
TAP	79	96	6
STR	79	144	0
SXL	79	144	0	96	48	2
STR	79	144	7
SXR	79	144	7	96	48	5
STR	80	0	6
SI_	80	0	6	96	48	2
STR	80	96	7
SI_	80	96	7	96	48	3
STR	80	192	0
SI_	80	192	0	96	48	4
TAP	80	288	1
TAP	81	0	2
TAP	81	96	0
TAP	81	96	7
TAP	81	192	4
HLD	81	192	6	96
TAP	81	288	7
HLD	82	0	1	96
TAP	82	0	3
TAP	82	96	0
HLD	82	192	4	96
TAP	82	192	6
TAP	82	288	2
TAP	83	0	5
TAP	83	96	0
TAP	83	96	7
HLD	83	192	1	96
TAP	83	192	3
TAP	83	288	0
TAP	84	0	4
HLD	84	0	6	96
TAP	84	96	7
TAP	84	192	1
HLD	84	192	3	96
TAP	84	288	5
TAP	85	0	2
TAP	85	96	0
TAP	85	96	7
TAP	85	192	4
TAP	85	192	6
TAP	85	288	2
TAP	85	288	4
TAP	86	0	3
TAP	86	0	6
TAP	86	96	1
TAP	86	96	4
TAP	86	192	4
TAP	86	192	5
TAP	86	288	0
TAP	86	288	2
TAP	87	0	5
TAP	87	96	0
TAP	87	96	7
TAP	87	192	1
TAP	87	192	3
TAP	87	288	3
TAP	87	288	5
TAP	88	0	1
TAP	88	0	4
TAP	88	96	3
TAP	88	96	6
TAP	88	192	2
TAP	88	192	3
TAP	88	288	5
TAP	88	288	7
TAP	89	0	1
TAP	89	0	3
TAP	89	48	1
TAP	89	96	1
TAP	89	96	3
TAP	89	192	4
TAP	89	192	6
TAP	89	240	6
TAP	89	288	4
TAP	89	288	6
TAP	90	0	0
TAP	90	0	2
TAP	90	48	2
TAP	90	96	2
TAP	90	96	4
TAP	90	192	5
TAP	90	192	7
TAP	90	240	5
TAP	90	288	3
TAP	90	288	5
TAP	91	0	1
TAP	91	0	7
TAP	91	48	1
TAP	91	96	1
TAP	91	96	7
TAP	91	144	1
TAP	91	192	1
TAP	91	192	3
TAP	91	240	1
TAP	91	288	1
TAP	91	288	3
TAP	92	0	0
TAP	92	0	6
TAP	92	48	6
TAP	92	96	0
TAP	92	96	6
TAP	92	144	6
TAP	92	192	4
TAP	92	192	6
TAP	92	240	6
TAP	92	288	4
TAP	92	288	6
TAP	93	0	2
TAP	93	48	2
TAP	93	96	2
TAP	93	96	3
TAP	93	144	2
TAP	93	144	3
TAP	93	192	5
TAP	93	240	5
TAP	93	288	4
TAP	93	288	5
TAP	93	336	4
TAP	93	336	5
TAP	94	0	0
TAP	94	0	7
TAP	94	48	0
TAP	94	48	7
TAP	94	96	1
TAP	94	96	6
TAP	94	144	1
TAP	94	144	6
TAP	94	192	0
TAP	94	216	7
TAP	94	240	0
TAP	94	264	7
TAP	94	288	0
TAP	94	312	7
TAP	94	336	0
TAP	94	360	7
STR	95	0	0
SCR	95	0	0	96	48	3
STR	95	144	7
SCL	95	144	7	96	48	4
STR	95	288	0
SCR	95	288	0	96	192	7
TAP	96	336	5
TAP	97	0	6
TAP	97	48	7
STR	97	96	0
SF_	97	96	0	96	48	4
TAP	97	336	2
TAP	98	0	1
TAP	98	48	0
STR	98	96	7
SF_	98	96	7	96	48	3
BRK	99	0	0
BRK	99	0	7

T_REC_TAP	553
T_REC_BRK	6
T_REC_XTP	0
T_REC_HLD	32
T_REC_XHO	0
T_REC_STR	33
T_REC_BST	2
T_REC_XST	0
T_REC_TTP	0
T_REC_THO	0
T_REC_SLD	37
T_REC_ALL	663
T_NUM_TAP	586
T_NUM_BRK	8
T_NUM_HLD	32
T_NUM_SLD	37
T_NUM_ALL	663
T_JUDGE_TAP	594
T_JUDGE_HLD	64
T_JUDGE_SLD	37
T_JUDGE_ALL	695
TTM_EACHPAIRS	155
TTM_SCR_TAP	293000
TTM_SCR_BRK	20800
TTM_SCR_HLD	32000
TTM_SCR_SLD	55500
TTM_SCR_ALL	401300
TTM_SCR_S	388500
TTM_SCR_SS	400500
TTM_RAT_ACV	10019

