VERSION	0.00.00	1.03.00
FES_MODE	0
BPM_DEF	180.000	180.000	180.000	180.000
MET_DEF	4	4
RESOLUTION	384
CLK_DEF	384
COMPATIBLE_CODE	MA2

BPM	0	0	180.000
MET	0	0	4	4

TAP	1	0	2
TAP	1	96	2
TAP	1	192	4
TAP	1	288	4
TAP	2	0	3
TAP	2	96	3
TAP	2	192	5
TAP	2	288	5
TAP	3	0	3
TAP	3	96	3
TAP	3	192	4
TAP	3	288	4
STR	4	0	2
SUL	4	0	2	96	192	5
TAP	5	0	4
TAP	5	96	4
TAP	5	192	4
TAP	5	288	4
TAP	5	288	5
TAP	6	0	3
TAP	6	96	3
TAP	6	192	3
TAP	6	288	2
TAP	6	288	3
TAP	7	0	5
TAP	7	96	5
TAP	7	192	5
TAP	7	288	4
TAP	7	288	5
TAP	8	0	2
TAP	8	96	2
TAP	8	192	2
TAP	8	288	2
TAP	8	288	3
TAP	9	0	6
TAP	9	96	6
TAP	9	192	6
TAP	9	288	6
TAP	9	288	7
TAP	10	0	1
TAP	10	96	1
TAP	10	192	1
TAP	10	288	0
TAP	10	288	1
TAP	11	0	7
TAP	11	96	7
TAP	11	192	0
TAP	11	288	0
TAP	12	0	0
TAP	12	0	7
TAP	12	96	0
TAP	12	96	7
TAP	12	192	1
TAP	12	192	6
TAP	13	0	0
TAP	13	96	0
TAP	13	192	1
TAP	13	288	1
TAP	14	0	2
TAP	14	96	2
TAP	14	192	3
TAP	14	288	3
TAP	14	288	4
TAP	15	0	4
TAP	15	96	4
TAP	15	192	5
TAP	15	288	5
TAP	16	0	6
TAP	16	96	6
TAP	16	192	7
TAP	16	288	0
TAP	16	288	7
TAP	17	0	7
TAP	17	96	6
TAP	17	192	5
TAP	17	288	4
TAP	18	0	3
TAP	18	96	2
TAP	18	192	1
TAP	18	288	0
TAP	18	288	7
TAP	19	0	1
TAP	19	0	6
TAP	19	192	1
TAP	19	192	6
STR	20	0	0
SCR	20	0	0	96	192	3
STR	20	0	7
SCL	20	0	7	96	192	4
HLD	21	0	2	192
TAP	21	192	3
TAP	21	288	3
HLD	22	0	5	192
TAP	22	192	4
TAP	22	288	4
HLD	23	0	1	192
TAP	23	192	3
TAP	23	288	3
HLD	24	0	6	192
TAP	24	192	4
TAP	24	288	4
HLD	25	0	1	192
TAP	25	192	2
TAP	25	288	0
HLD	26	0	6	192
TAP	26	192	5
TAP	26	288	7
TAP	27	0	0
TAP	27	0	7
TAP	27	192	0
TAP	27	192	7
TAP	28	0	1
TAP	28	0	6
TAP	28	96	2
TAP	28	96	5
TAP	28	192	3
TAP	28	192	4
TAP	29	0	2
TAP	29	96	2
TAP	29	192	3
TAP	29	288	3
TAP	30	0	2
TAP	30	96	3
TAP	30	192	1
TAP	30	192	4
TAP	31	0	5
TAP	31	96	5
TAP	31	192	4
TAP	31	288	4
TAP	32	0	5
TAP	32	96	4
TAP	32	192	3
TAP	32	192	6
TAP	33	0	1
TAP	33	96	1
TAP	33	192	3
TAP	33	288	3
TAP	34	0	2
TAP	34	96	3
TAP	34	192	1
TAP	34	192	4
TAP	35	0	6
TAP	35	96	6
TAP	35	192	4
TAP	35	288	4
TAP	36	0	5
TAP	36	96	4
TAP	36	192	3
TAP	36	192	6
TAP	37	0	2
TAP	37	96	2
TAP	37	96	3
TAP	37	192	5
TAP	37	288	4
TAP	37	288	5
TAP	38	0	3
TAP	38	0	6
TAP	38	96	2
TAP	38	96	7
BRK	38	192	0
BRK	38	192	1
TAP	39	0	5
TAP	39	96	4
TAP	39	96	5
TAP	39	192	2
TAP	39	288	2
TAP	39	288	3
TAP	40	0	1
TAP	40	0	4
TAP	40	96	0
TAP	40	96	5
BRK	40	192	6
BRK	40	192	7
TAP	41	0	2
TAP	41	0	3
TAP	41	96	1
TAP	41	96	4
TAP	41	192	4
TAP	41	192	5
TAP	41	288	3
TAP	41	288	6
TAP	42	0	2
TAP	42	0	5
TAP	42	96	1
TAP	42	96	4
BRK	42	192	6
BRK	42	192	7
TAP	43	0	4
TAP	43	0	5
TAP	43	96	3
TAP	43	96	6
TAP	43	192	2
TAP	43	192	3
TAP	43	288	1
TAP	43	288	4
TAP	44	0	2
TAP	44	0	5
TAP	44	96	3
TAP	44	96	6
BRK	44	192	0
BRK	44	192	1
HLD	45	0	2	144
HLD	45	144	3	144
HLD	45	288	4	144
TAP	46	48	5
TAP	46	192	6
TAP	46	288	6
HLD	47	0	5	144
HLD	47	144	4	144
HLD	47	288	3	144
TAP	48	48	2
TAP	48	192	1
TAP	48	288	1
HLD	49	0	2	144
HLD	49	144	1	144
HLD	49	288	0	144
TAP	50	48	7
TAP	50	192	6
TAP	50	288	6
HLD	51	0	5	144
HLD	51	144	6	144
HLD	51	288	7	144
TAP	52	48	0
TAP	52	192	1
TAP	52	288	1
HLD	53	0	2	144
HLD	53	144	3	144
HLD	53	288	4	144
TAP	54	48	5
TAP	54	192	0
TAP	54	192	7
TAP	54	288	0
TAP	54	288	7
TAP	55	0	7
TAP	55	96	6
TAP	55	192	5
TAP	55	288	4
TAP	56	0	3
TAP	56	96	2
TAP	56	192	1
TAP	56	288	0
STR	57	0	7
SCL	57	0	7	96	480	0
STR	59	0	0
SCR	59	0	0	96	480	7
STR	61	0	7
SXR	61	0	7	96	480	4
STR	63	0	3
SXR	63	0	3	96	480	0
TAP	65	0	7
TAP	65	96	6
TAP	65	192	5
TAP	65	288	4
TAP	66	0	3
TAP	66	96	2
TAP	66	96	4
TAP	66	192	7
TAP	66	288	0
TAP	66	288	6
TAP	67	0	5
TAP	67	96	4
TAP	67	96	6
TAP	67	192	1
TAP	67	288	0
TAP	67	288	2
TAP	68	0	3
TAP	68	96	3
TAP	68	96	4
TAP	68	192	6
TAP	68	288	5
TAP	68	288	7
TAP	69	0	0
TAP	69	96	1
TAP	69	192	2
TAP	69	288	3
TAP	70	0	4
TAP	70	96	3
TAP	70	96	5
TAP	70	192	0
TAP	70	288	1
TAP	70	288	7
TAP	71	0	2
TAP	71	96	1
TAP	71	96	3
TAP	71	192	6
TAP	71	288	5
TAP	71	288	7
TAP	72	0	4
TAP	72	96	3
TAP	72	96	4
TAP	72	192	1
TAP	72	288	0
TAP	72	288	2
TAP	73	0	5
TAP	73	96	4
TAP	73	96	5
TAP	73	192	4
TAP	73	192	5
TAP	73	288	3
TAP	73	288	7
TAP	74	0	2
TAP	74	96	2
TAP	74	96	3
TAP	74	192	2
TAP	74	192	3
TAP	74	288	0
TAP	74	288	4
TAP	75	0	5
TAP	75	96	4
TAP	75	96	6
TAP	75	192	2
TAP	75	288	1
TAP	75	288	3
TAP	76	0	0
TAP	76	0	7
TAP	76	96	1
TAP	76	96	6
TAP	76	192	2
TAP	76	192	5
TAP	76	288	3
TAP	76	288	4
TAP	77	0	0
TAP	77	96	1
TAP	77	96	7
TAP	77	192	2
TAP	77	192	6
TAP	77	288	3
TAP	77	288	5
TAP	78	0	7
TAP	78	96	0
TAP	78	96	6
TAP	78	192	1
TAP	78	192	5
TAP	78	288	2
TAP	78	288	4
TAP	79	0	3
TAP	79	0	4
TAP	79	96	2
TAP	79	96	5
TAP	79	192	1
TAP	79	192	6
TAP	79	288	0
TAP	79	288	7
TAP	80	0	1
TAP	80	96	0
TAP	80	96	1
TAP	80	192	6
TAP	80	288	6
TAP	80	288	7
STR	81	0	0
SCR	81	0	0	96	96	3
TAP	81	192	4
TAP	81	288	4
TAP	82	0	5
TAP	82	96	5
TAP	82	192	6
TAP	82	288	6
STR	83	0	7
SCL	83	0	7	96	96	4
TAP	83	192	3
TAP	83	288	3
TAP	84	0	2
TAP	84	96	2
TAP	84	192	1
TAP	84	288	1
STR	85	0	1
SCR	85	0	1	96	96	4
TAP	85	192	0
TAP	85	288	0
TAP	86	0	7
TAP	86	96	7
TAP	86	192	6
TAP	86	288	6
STR	87	0	6
SCL	87	0	6	96	96	3
TAP	87	192	7
TAP	87	288	7
TAP	88	0	0
TAP	88	96	0
TAP	88	192	1
TAP	88	288	1
TAP	89	0	2
TAP	89	96	2
TAP	89	96	3
TAP	89	192	5
TAP	89	288	4
TAP	89	288	5
TAP	90	0	2
TAP	90	96	1
TAP	90	96	3
TAP	90	192	5
TAP	90	288	4
TAP	90	288	6
TAP	91	0	1
TAP	91	96	0
TAP	91	96	2
TAP	91	192	6
TAP	91	288	5
TAP	91	288	7
TAP	92	0	1
TAP	92	96	0
TAP	92	96	1
TAP	92	192	6
TAP	92	288	6
TAP	92	288	7
TAP	93	0	0
TAP	93	96	1
TAP	93	192	2
TAP	93	288	3
TAP	94	0	4
TAP	94	96	5
TAP	94	192	6
TAP	94	288	7
TAP	95	0	1
TAP	95	0	6
TAP	95	144	1
TAP	95	144	6
BST	95	288	0
SI_	95	288	0	96	192	3
BST	95	288	7
SI_	95	288	7	96	192	4
STR	97	0	0
SSL	97	0	0	96	192	4
STR	98	0	7
SF_	98	0	7	96	192	3

T_REC_TAP	366
T_REC_BRK	8
T_REC_XTP	0
T_REC_HLD	21
T_REC_XHO	0
T_REC_STR	13
T_REC_BST	2
T_REC_XST	0
T_REC_TTP	0
T_REC_THO	0
T_REC_SLD	15
T_REC_ALL	425
T_NUM_TAP	379
T_NUM_BRK	10
T_NUM_HLD	21
T_NUM_SLD	15
T_NUM_ALL	425
T_JUDGE_TAP	389
T_JUDGE_HLD	69
T_JUDGE_SLD	15
T_JUDGE_ALL	473
TTM_EACHPAIRS	97
TTM_SCR_TAP	189500
TTM_SCR_BRK	26000
TTM_SCR_HLD	21000
TTM_SCR_SLD	22500
TTM_SCR_ALL	259000
TTM_SCR_S	250300
TTM_SCR_SS	258000
TTM_RAT_ACV	10038

