VERSION	0.00.00	1.03.00
FES_MODE	0
BPM_DEF	180.000	180.000	180.000	180.000
MET_DEF	4	4
RESOLUTION	384
CLK_DEF	384
COMPATIBLE_CODE	MA2

BPM	0	0	180.000
MET	0	0	4	4

TAP	1	0	3
TAP	2	0	3
TAP	3	0	4
TAP	4	0	4
TAP	5	0	3
TAP	5	192	3
TAP	6	0	2
TAP	6	192	2
TAP	6	192	3
TAP	7	0	4
TAP	7	192	4
TAP	8	0	5
TAP	8	192	4
TAP	8	192	5
TAP	9	0	4
TAP	9	192	3
TAP	10	0	2
TAP	10	192	1
TAP	10	192	3
TAP	11	0	3
TAP	11	192	4
TAP	12	0	5
TAP	12	192	4
TAP	12	192	6
TAP	13	0	7
TAP	13	192	7
TAP	14	0	6
TAP	14	192	6
TAP	15	0	5
TAP	15	192	5
TAP	16	0	4
TAP	16	192	3
TAP	16	192	4
TAP	17	0	3
TAP	17	192	3
TAP	18	0	2
TAP	18	192	2
TAP	19	0	1
TAP	19	192	1
TAP	20	0	0
TAP	20	192	0
TAP	20	192	7
STR	21	0	7
SI_	21	0	7	96	288	3
STR	23	0	0
SI_	23	0	0	96	288	5
STR	25	0	6
SI_	25	0	6	96	288	2
STR	27	0	1
SI_	27	0	1	96	288	4
TAP	29	0	5
TAP	29	96	5
TAP	29	192	6
TAP	29	288	6
TAP	30	0	7
TAP	30	96	7
TAP	30	192	0
TAP	30	192	7
TAP	31	0	1
TAP	31	96	1
TAP	31	192	2
TAP	31	288	2
TAP	32	0	3
TAP	32	96	3
TAP	32	192	3
TAP	32	192	4
TAP	33	0	2
TAP	33	96	2
TAP	33	192	1
TAP	33	288	1
TAP	34	0	0
TAP	34	96	0
TAP	34	192	0
TAP	34	192	7
TAP	35	0	6
TAP	35	96	6
TAP	35	192	5
TAP	35	288	5
TAP	36	0	4
TAP	36	96	4
TAP	36	192	3
TAP	36	192	4
TAP	37	0	2
TAP	37	0	3
TAP	37	96	2
TAP	37	96	3
TAP	37	192	4
TAP	37	192	5
TAP	37	288	4
TAP	37	288	5
BRK	38	0	3
BRK	38	0	4
BRK	38	96	3
BRK	38	96	4
BRK	38	192	2
BRK	38	192	5
TAP	39	0	4
TAP	39	0	5
TAP	39	96	4
TAP	39	96	5
TAP	39	192	2
TAP	39	192	3
TAP	39	288	2
TAP	39	288	3
BRK	40	0	3
BRK	40	0	4
BRK	40	96	3
BRK	40	96	4
BRK	40	192	2
BRK	40	192	5
TAP	41	0	0
TAP	41	0	1
TAP	41	96	0
TAP	41	96	1
TAP	41	192	6
TAP	41	192	7
TAP	41	288	6
TAP	41	288	7
BRK	42	0	0
BRK	42	0	7
BRK	42	96	0
BRK	42	96	7
BRK	42	192	1
BRK	42	192	6
TAP	43	0	6
TAP	43	0	7
TAP	43	96	6
TAP	43	96	7
TAP	43	192	0
TAP	43	192	1
TAP	43	288	0
TAP	43	288	1
BRK	44	0	0
BRK	44	0	7
BRK	44	96	0
BRK	44	96	7
BRK	44	192	1
BRK	44	192	6
HLD	45	0	1	144
HLD	45	288	0	144
HLD	45	288	1	144
TAP	46	192	0
TAP	46	192	1
HLD	47	0	6	144
HLD	47	288	6	144
HLD	47	288	7	144
TAP	48	192	6
TAP	48	192	7
HLD	49	0	5	144
HLD	49	288	4	144
HLD	49	288	5	144
TAP	50	192	4
TAP	50	192	5
HLD	51	0	2	144
HLD	51	288	2	144
HLD	51	288	3	144
TAP	52	192	2
TAP	52	192	3
TAP	53	0	3
TAP	53	96	3
TAP	53	192	2
TAP	53	288	2
TAP	54	0	1
TAP	54	96	1
TAP	54	192	0
TAP	54	288	0
TAP	55	0	7
TAP	55	96	7
TAP	55	192	6
TAP	55	288	6
TAP	56	0	5
TAP	56	96	5
TAP	56	192	4
TAP	56	288	4
STR	57	0	3
SI_	57	0	3	96	288	7
TAP	59	0	7
TAP	60	0	6
STR	61	0	5
SI_	61	0	5	96	288	1
TAP	63	0	1
TAP	64	0	2
TAP	65	0	2
TAP	65	96	2
TAP	65	192	3
TAP	65	288	3
TAP	66	0	4
TAP	66	96	4
TAP	66	192	5
TAP	66	288	5
TAP	67	0	6
TAP	67	96	6
TAP	67	192	7
TAP	67	288	7
HLD	68	0	0	192
TAP	68	192	7
TAP	69	0	2
TAP	69	96	2
TAP	69	192	1
TAP	69	288	1
TAP	70	0	0
TAP	70	96	0
TAP	70	192	7
TAP	70	288	7
TAP	71	0	6
TAP	71	96	6
TAP	71	192	5
TAP	71	288	5
HLD	72	0	4	192
TAP	72	192	3
TAP	73	0	5
TAP	73	96	5
TAP	73	192	6
TAP	73	288	6
TAP	74	0	7
TAP	74	96	7
TAP	74	192	0
TAP	74	288	0
TAP	74	288	7
TAP	75	0	1
TAP	75	96	1
TAP	75	192	2
TAP	75	288	2
HLD	76	0	3	192
TAP	76	192	4
TAP	77	0	2
TAP	77	96	2
TAP	77	192	1
TAP	77	288	1
TAP	78	0	0
TAP	78	96	0
TAP	78	192	7
TAP	78	288	0
TAP	78	288	7
TAP	79	0	6
TAP	79	96	6
TAP	79	192	5
TAP	79	288	5
HLD	80	0	4	192
TAP	80	192	3
STR	81	0	3
SI_	81	0	3	96	288	6
TAP	82	192	5
TAP	82	192	7
STR	83	0	6
SI_	83	0	6	96	288	2
TAP	84	192	1
TAP	84	192	3
STR	85	0	2
SI_	85	0	2	96	288	7
TAP	86	192	0
TAP	86	192	6
STR	87	0	7
SI_	87	0	7	96	288	3
TAP	88	192	2
TAP	88	192	4
TAP	89	0	2
TAP	89	0	3
TAP	89	192	2
TAP	89	192	3
TAP	90	0	4
TAP	90	0	5
TAP	90	192	4
TAP	90	192	5
TAP	91	0	6
TAP	91	0	7
TAP	91	192	6
TAP	91	192	7
TAP	92	0	0
TAP	92	0	1
TAP	92	192	0
TAP	92	192	1
TAP	93	0	0
TAP	93	96	0
TAP	93	192	1
TAP	93	288	1
TAP	94	0	2
TAP	94	96	2
TAP	94	192	3
TAP	94	288	3
TAP	95	0	4
TAP	95	96	4
TAP	95	192	5
TAP	95	288	5
TAP	96	0	6
TAP	96	96	6
TAP	96	192	7
TAP	96	288	7
STR	97	0	0
SI_	97	0	0	96	288	4
HLD	99	0	2	1440
HLD	99	0	5	1440

T_REC_TAP	228
T_REC_BRK	24
T_REC_XTP	0
T_REC_HLD	18
T_REC_XHO	0
T_REC_STR	11
T_REC_BST	0
T_REC_XST	0
T_REC_TTP	0
T_REC_THO	0
T_REC_SLD	11
T_REC_ALL	292
T_NUM_TAP	239
T_NUM_BRK	24
T_NUM_HLD	18
T_NUM_SLD	11
T_NUM_ALL	292
T_JUDGE_TAP	263
T_JUDGE_HLD	112
T_JUDGE_SLD	11
T_JUDGE_ALL	386
TTM_EACHPAIRS	61
TTM_SCR_TAP	119500
TTM_SCR_BRK	62400
TTM_SCR_HLD	18000
TTM_SCR_SLD	16500
TTM_SCR_ALL	216400
TTM_SCR_S	207600
TTM_SCR_SS	214000
TTM_RAT_ACV	10112

