VERSION	0.00.00	1.03.00
FES_MODE	0
BPM_DEF	200.000	200.000	200.000	200.000
MET_DEF	4	4
RESOLUTION	384
CLK_DEF	384
COMPATIBLE_CODE	MA2

BPM	0	0	200.000
MET	0	0	4	4

HLD	2	0	0	576
HLD	2	0	7	576
TAP	3	288	3
TAP	3	288	4
HLD	4	0	1	576
HLD	4	0	3	576
TAP	5	288	3
TAP	5	288	4
HLD	6	0	4	192
HLD	6	0	6	576
HLD	7	0	1	768
TAP	8	0	7
TAP	8	192	7
STR	9	0	7
SSR	9	0	7	96	192	3
STR	10	0	0
SCR	10	0	0	96	48	3
TAP	10	0	4
TAP	10	96	6
TAP	10	192	0
STR	10	192	4
SCL	10	192	4	96	48	1
TAP	10	288	6
STR	11	0	0
SCR	11	0	0	96	48	3
TAP	11	0	4
TAP	11	96	6
TAP	11	192	0
STR	11	192	4
SCL	11	192	4	96	48	1
TAP	11	288	6
STR	12	0	0
SCR	12	0	0	96	48	3
TAP	12	0	4
TAP	12	96	6
TAP	12	192	0
STR	12	192	4
SCL	12	192	4	96	48	1
TAP	12	288	6
STR	13	0	0
SCR	13	0	0	96	48	3
TAP	13	0	4
TAP	13	96	6
TAP	13	192	0
TAP	13	192	4
TAP	14	0	3
STR	14	0	7
SCL	14	0	7	96	48	4
TAP	14	96	1
STR	14	192	3
SCR	14	192	3	96	48	6
TAP	14	192	7
TAP	14	288	1
TAP	15	0	3
STR	15	0	7
SCL	15	0	7	96	48	4
TAP	15	96	1
STR	15	192	3
SCR	15	192	3	96	48	6
TAP	15	192	7
TAP	15	288	1
TAP	16	0	3
STR	16	0	7
SCL	16	0	7	96	48	4
TAP	16	96	1
STR	16	192	3
SCR	16	192	3	96	48	6
TAP	16	192	7
TAP	16	288	1
TAP	17	0	3
STR	17	0	7
SCL	17	0	7	96	48	4
TAP	17	96	1
TAP	17	192	3
TAP	17	192	7
STR	18	0	0
SI_	18	0	0	96	48	3
TAP	18	0	4
TAP	18	96	6
TAP	18	192	0
STR	18	192	4
SI_	18	192	4	96	48	1
TAP	18	288	6
STR	19	0	0
SI_	19	0	0	96	48	3
TAP	19	0	4
TAP	19	96	6
TAP	19	192	0
STR	19	192	4
SI_	19	192	4	96	48	1
TAP	19	288	6
STR	20	0	0
SI_	20	0	0	96	48	3
TAP	20	0	4
TAP	20	96	6
TAP	20	192	0
STR	20	192	4
SI_	20	192	4	96	48	1
TAP	20	288	6
STR	21	0	0
SI_	21	0	0	96	48	3
TAP	21	0	4
TAP	21	96	6
TAP	21	192	0
TAP	21	192	4
TAP	22	0	3
STR	22	0	7
SI_	22	0	7	96	48	4
TAP	22	96	1
STR	22	192	3
SI_	22	192	3	96	48	6
TAP	22	192	7
TAP	22	288	1
TAP	23	0	3
STR	23	0	7
SI_	23	0	7	96	48	4
TAP	23	96	1
STR	23	192	3
SI_	23	192	3	96	48	6
TAP	23	192	7
TAP	23	288	1
TAP	24	0	3
STR	24	0	7
SI_	24	0	7	96	48	4
TAP	24	96	1
STR	24	192	3
SI_	24	192	3	96	48	6
TAP	24	192	7
TAP	24	288	1
TAP	25	0	3
STR	25	0	7
SI_	25	0	7	96	48	4
TAP	25	96	1
TAP	25	192	3
TAP	25	192	7
STR	26	0	0
SI_	26	0	0	96	48	3
TAP	26	0	4
TAP	26	96	0
TAP	26	96	6
TAP	26	192	0
STR	26	192	4
SI_	26	192	4	96	48	1
TAP	26	288	4
TAP	26	288	6
STR	27	0	0
SI_	27	0	0	96	48	3
TAP	27	0	4
TAP	27	96	0
TAP	27	96	6
TAP	27	192	0
STR	27	192	4
SI_	27	192	4	96	48	1
TAP	27	288	4
TAP	27	288	6
STR	28	0	0
SI_	28	0	0	96	48	3
TAP	28	0	4
TAP	28	96	0
TAP	28	96	6
TAP	28	192	0
STR	28	192	4
SI_	28	192	4	96	48	1
TAP	28	288	4
TAP	28	288	6
STR	29	0	0
SI_	29	0	0	96	48	3
TAP	29	0	4
TAP	29	96	0
TAP	29	96	6
TAP	29	192	0
TAP	29	192	4
TAP	30	0	3
STR	30	0	7
SI_	30	0	7	96	48	4
TAP	30	96	1
TAP	30	96	7
STR	30	192	3
SI_	30	192	3	96	48	6
TAP	30	192	7
TAP	30	288	1
TAP	30	288	3
TAP	31	0	3
STR	31	0	7
SI_	31	0	7	96	48	4
TAP	31	96	1
TAP	31	96	7
STR	31	192	3
SI_	31	192	3	96	48	6
TAP	31	192	7
TAP	31	288	1
TAP	31	288	3
TAP	32	0	3
STR	32	0	7
SI_	32	0	7	96	48	4
TAP	32	96	1
TAP	32	96	7
STR	32	192	3
SI_	32	192	3	96	48	6
TAP	32	192	7
TAP	32	288	1
TAP	32	288	3
TAP	33	0	3
STR	33	0	7
SI_	33	0	7	96	48	4
TAP	33	96	1
TAP	33	96	7
TAP	33	192	3
TAP	33	192	7
STR	34	0	0
SCR	34	0	0	96	48	2
STR	34	0	4
SCR	34	0	4	96	48	6
STR	34	192	3
SCR	34	192	3	96	48	5
STR	34	192	7
SCR	34	192	7	96	48	1
TAP	35	0	7
TAP	35	48	6
TAP	35	96	0
TAP	35	144	5
STR	35	192	1
SI_	35	192	1	96	48	5
BRK	35	288	1
TAP	36	0	7
TAP	36	48	1
TAP	36	96	6
TAP	36	144	2
TAP	36	192	5
TAP	36	240	2
TAP	36	264	3
TAP	36	288	2
TAP	36	336	5
STR	37	0	0
SCL	37	0	0	96	48	5
STR	37	96	0
SCR	37	96	0	96	48	3
BRK	37	192	0
STR	38	0	3
SCL	38	0	3	96	48	1
STR	38	0	7
SCL	38	0	7	96	48	5
STR	38	192	0
SCL	38	192	0	96	48	6
STR	38	192	4
SCL	38	192	4	96	48	2
TAP	39	0	0
TAP	39	48	1
TAP	39	96	7
TAP	39	144	2
STR	39	192	6
SI_	39	192	6	96	48	2
BRK	39	288	6
TAP	40	0	0
TAP	40	48	6
TAP	40	96	1
TAP	40	144	5
TAP	40	192	2
TAP	40	240	5
TAP	40	264	4
TAP	40	288	5
TAP	40	336	2
STR	41	0	7
SCL	41	0	7	96	192	0
STR	42	0	2
SCR	42	0	2	96	48	4
STR	42	0	6
SCR	42	0	6	96	48	0
STR	42	192	1
SCR	42	192	1	96	48	3
STR	42	192	5
SCR	42	192	5	96	48	7
TAP	43	0	0
TAP	43	48	7
TAP	43	96	1
TAP	43	144	6
STR	43	192	2
SI_	43	192	2	96	48	6
BRK	43	288	2
TAP	44	0	5
TAP	44	48	4
TAP	44	96	6
TAP	44	144	3
TAP	44	192	7
TAP	44	240	1
TAP	44	264	0
TAP	44	288	1
TAP	44	336	6
STR	45	0	0
SCL	45	0	0	96	48	5
STR	45	96	0
SCR	45	96	0	96	48	3
BRK	45	192	0
STR	46	0	1
SCL	46	0	1	96	48	7
STR	46	0	5
SCL	46	0	5	96	48	3
STR	46	192	2
SCL	46	192	2	96	48	0
STR	46	192	6
SCL	46	192	6	96	48	4
TAP	47	0	7
TAP	47	48	0
TAP	47	96	6
TAP	47	144	1
STR	47	192	5
SI_	47	192	5	96	48	1
BRK	47	288	5
TAP	48	0	2
TAP	48	48	3
TAP	48	96	1
TAP	48	144	4
TAP	48	192	0
TAP	48	240	6
TAP	48	264	7
TAP	48	288	6
TAP	48	336	1
STR	49	0	7
SCL	49	0	7	96	192	0
HLD	50	0	1	96
TAP	50	48	2
TAP	50	96	3
HLD	50	144	4	96
TAP	50	192	3
TAP	50	240	2
HLD	50	288	1	48
TAP	50	336	0
HLD	51	0	0	96
HLD	51	0	1	96
HLD	51	144	0	96
HLD	51	144	7	96
TAP	51	288	6
TAP	51	288	7
HLD	52	0	6	96
TAP	52	48	5
TAP	52	96	4
HLD	52	144	3	96
TAP	52	192	4
TAP	52	240	5
HLD	52	288	6	48
TAP	52	336	7
HLD	53	0	6	96
HLD	53	0	7	96
HLD	53	144	0	96
HLD	53	144	7	96
TAP	53	288	0
TAP	53	288	1
TAP	54	0	6
HLD	54	0	7	96
TAP	54	48	5
TAP	54	96	4
TAP	54	144	2
HLD	54	144	3	96
TAP	54	192	1
TAP	54	240	0
TAP	54	288	6
TAP	54	288	7
TAP	54	336	5
HLD	55	0	0	96
HLD	55	0	4	96
HLD	55	144	1	96
HLD	55	144	5	96
TAP	55	288	2
TAP	55	288	6
HLD	56	0	0	96
TAP	56	0	1
TAP	56	48	2
TAP	56	96	3
HLD	56	144	4	96
TAP	56	144	5
TAP	56	192	6
TAP	56	240	7
TAP	56	288	0
TAP	56	288	1
TAP	56	336	2
HLD	57	0	3	96
HLD	57	0	7	96
HLD	57	144	2	96
HLD	57	144	6	96
TAP	57	288	1
TAP	57	288	5
STR	58	0	0
SI_	58	0	0	96	48	3
TAP	58	48	6
TAP	58	96	0
TAP	58	144	7
STR	58	192	4
SI_	58	192	4	96	48	1
TAP	58	240	6
TAP	58	288	4
TAP	58	336	5
STR	59	0	0
SI_	59	0	0	96	48	3
TAP	59	48	6
TAP	59	96	0
TAP	59	144	7
STR	59	192	4
SI_	59	192	4	96	48	1
TAP	59	240	6
TAP	59	288	4
TAP	59	336	5
STR	60	0	0
SI_	60	0	0	96	48	3
TAP	60	48	6
TAP	60	96	0
TAP	60	144	7
STR	60	192	4
SI_	60	192	4	96	48	1
TAP	60	240	6
TAP	60	288	4
TAP	60	336	5
STR	61	0	0
SI_	61	0	0	96	48	3
TAP	61	48	6
TAP	61	96	0
TAP	61	144	7
HLD	61	192	4	96
STR	62	0	7
SI_	62	0	7	96	48	4
TAP	62	48	1
TAP	62	96	7
TAP	62	144	0
STR	62	192	3
SI_	62	192	3	96	48	6
TAP	62	240	1
TAP	62	288	3
TAP	62	336	2
STR	63	0	7
SI_	63	0	7	96	48	4
TAP	63	48	1
TAP	63	96	7
TAP	63	144	0
STR	63	192	3
SI_	63	192	3	96	48	6
TAP	63	240	1
TAP	63	288	3
TAP	63	336	2
STR	64	0	7
SI_	64	0	7	96	48	4
TAP	64	48	1
TAP	64	96	7
TAP	64	144	0
STR	64	192	3
SI_	64	192	3	96	48	6
TAP	64	240	1
TAP	64	288	3
TAP	64	336	2
STR	65	0	7
SI_	65	0	7	96	48	4
TAP	65	48	1
TAP	65	96	7
TAP	65	144	0
HLD	65	192	3	96
STR	66	0	0
SI_	66	0	0	96	48	5
TAP	66	48	6
TAP	66	96	0
TAP	66	144	1
STR	66	192	4
SI_	66	192	4	96	48	7
TAP	66	240	6
TAP	66	288	4
TAP	66	336	3
STR	67	0	0
SI_	67	0	0	96	48	5
TAP	67	48	6
TAP	67	96	0
TAP	67	144	1
STR	67	192	4
SI_	67	192	4	96	48	7
TAP	67	240	6
TAP	67	288	4
TAP	67	336	3
STR	68	0	0
SI_	68	0	0	96	48	5
TAP	68	48	6
TAP	68	96	0
TAP	68	144	1
STR	68	192	4
SI_	68	192	4	96	48	7
TAP	68	240	6
TAP	68	288	4
TAP	68	336	3
STR	69	0	0
SI_	69	0	0	96	48	5
TAP	69	48	6
TAP	69	96	0
TAP	69	144	1
HLD	69	192	4	96
STR	70	0	7
SI_	70	0	7	96	48	2
TAP	70	48	1
TAP	70	96	7
TAP	70	144	6
STR	70	192	3
SI_	70	192	3	96	48	0
TAP	70	240	1
TAP	70	288	3
TAP	70	336	4
STR	71	0	7
SI_	71	0	7	96	48	2
TAP	71	48	1
TAP	71	96	7
TAP	71	144	6
STR	71	192	3
SI_	71	192	3	96	48	0
TAP	71	240	1
TAP	71	288	3
TAP	71	336	4
STR	72	0	7
SI_	72	0	7	96	48	2
TAP	72	48	1
TAP	72	96	7
TAP	72	144	6
STR	72	192	3
SI_	72	192	3	96	48	0
TAP	72	240	1
TAP	72	288	3
TAP	72	336	4
STR	73	0	7
SI_	73	0	7	96	48	2
TAP	73	48	1
TAP	73	96	7
TAP	73	144	6
HLD	73	192	3	96
STR	74	0	0
SCR	74	0	0	96	48	2
STR	74	0	4
SCR	74	0	4	96	48	6
TAP	74	96	0
TAP	74	96	4
STR	74	192	3
SCR	74	192	3	96	48	6
STR	74	192	7
SCR	74	192	7	96	48	2
TAP	75	0	4
TAP	75	48	5
TAP	75	96	6
TAP	75	144	7
STR	75	192	0
SI_	75	192	0	96	48	3
STR	75	192	1
SI_	75	192	1	96	48	6
BRK	75	288	0
BRK	75	288	1
TAP	76	0	5
TAP	76	48	5
TAP	76	96	4
TAP	76	144	4
TAP	76	192	6
TAP	76	240	2
TAP	76	264	3
TAP	76	288	2
TAP	76	336	1
TAP	76	336	4
TAP	77	0	3
STR	77	0	7
SI_	77	0	7	96	48	3
STR	77	96	0
SI_	77	96	0	96	48	4
TAP	77	96	7
BRK	77	192	0
BRK	77	192	7
STR	78	0	3
SCL	78	0	3	96	48	1
STR	78	0	7
SCL	78	0	7	96	48	5
TAP	78	96	3
TAP	78	96	7
STR	78	192	0
SCL	78	192	0	96	48	5
STR	78	192	4
SCL	78	192	4	96	48	1
TAP	79	0	3
TAP	79	48	2
TAP	79	96	1
TAP	79	144	0
STR	79	192	6
SI_	79	192	6	96	48	1
STR	79	192	7
SI_	79	192	7	96	48	4
BRK	79	288	6
BRK	79	288	7
TAP	80	0	2
TAP	80	48	2
TAP	80	96	3
TAP	80	144	3
TAP	80	192	1
TAP	80	240	5
TAP	80	264	4
TAP	80	288	5
TAP	80	336	3
TAP	80	336	6
STR	81	0	4
SCR	81	0	4	96	192	3
STR	82	0	1
SCL	82	0	1	96	48	7
STR	82	0	5
SCL	82	0	5	96	48	3
TAP	82	96	1
TAP	82	96	5
STR	82	192	2
SCL	82	192	2	96	48	7
STR	82	192	6
SCL	82	192	6	96	48	3
TAP	83	0	5
TAP	83	48	3
TAP	83	96	7
TAP	83	144	1
STR	83	192	3
SCR	83	192	3	96	48	5
STR	83	192	7
SCR	83	192	7	96	48	1
BRK	83	288	3
BRK	83	288	7
TAP	84	0	7
TAP	84	48	7
TAP	84	96	3
TAP	84	144	3
TAP	84	192	5
TAP	84	240	0
TAP	84	264	7
TAP	84	288	0
TAP	84	336	2
TAP	84	336	5
STR	85	0	0
SI_	85	0	0	96	48	4
STR	85	0	7
SI_	85	0	7	96	48	5
STR	85	96	0
SI_	85	96	0	96	48	2
STR	85	96	7
SI_	85	96	7	96	48	3
BRK	85	192	0
BRK	85	192	7
STR	86	0	2
SCR	86	0	2	96	48	4
STR	86	0	6
SCR	86	0	6	96	48	0
TAP	86	96	2
TAP	86	96	6
STR	86	192	1
SCR	86	192	1	96	48	4
STR	86	192	5
SCR	86	192	5	96	48	0
TAP	87	0	2
TAP	87	48	4
TAP	87	96	0
TAP	87	144	6
STR	87	192	0
SCL	87	192	0	96	48	6
STR	87	192	4
SCL	87	192	4	96	48	2
BRK	87	288	0
BRK	87	288	4
TAP	88	0	0
TAP	88	48	0
TAP	88	96	4
TAP	88	144	4
TAP	88	192	2
TAP	88	240	6
TAP	88	264	7
TAP	88	288	5
TAP	88	336	2
TAP	88	336	6
STR	89	0	0
SCR	89	0	0	96	192	7
STR	90	0	3
SCR	90	0	3	96	48	6
STR	90	0	7
SCR	90	0	7	96	48	2
TAP	90	96	3
TAP	90	96	7
STR	90	192	3
SCR	90	192	3	96	48	6
STR	90	192	7
SCR	90	192	7	96	48	2
TAP	90	288	3
TAP	90	288	7
TAP	91	0	0
TAP	91	0	4
TAP	91	48	0
TAP	91	48	4
TAP	91	96	2
TAP	91	96	6
TAP	91	144	2
TAP	91	144	6
STR	91	192	0
SI_	91	192	0	96	48	5
STR	91	192	4
SI_	91	192	4	96	48	1
BRK	91	288	0
BRK	91	288	4
TAP	92	0	2
TAP	92	0	6
TAP	92	48	2
TAP	92	48	6
TAP	92	96	0
TAP	92	96	4
TAP	92	144	0
TAP	92	144	4
TAP	92	192	2
TAP	92	192	6
TAP	92	240	2
TAP	92	240	6
TAP	92	264	1
TAP	92	264	5
TAP	92	288	0
TAP	92	288	4
TAP	92	336	2
TAP	92	336	6
BRK	93	0	0
BRK	93	0	4
BRK	93	48	0
BRK	93	48	4
BRK	93	96	1
BRK	93	96	5
BRK	93	144	1
BRK	93	144	5
BRK	93	192	2
BRK	93	192	6
BRK	93	240	2
BRK	93	240	6
BRK	93	288	3
BRK	93	288	7
BRK	93	336	3
BRK	93	336	7
STR	94	0	0
SCL	94	0	0	96	48	5
STR	94	0	4
SCL	94	0	4	96	48	1
TAP	94	96	0
TAP	94	96	4
STR	94	192	0
SCL	94	192	0	96	48	5
STR	94	192	4
SCL	94	192	4	96	48	1
TAP	94	288	0
TAP	94	288	4
TAP	95	0	3
TAP	95	0	7
TAP	95	48	3
TAP	95	48	7
TAP	95	96	1
TAP	95	96	5
TAP	95	144	1
TAP	95	144	5
STR	95	192	3
SI_	95	192	3	96	48	6
STR	95	192	7
SI_	95	192	7	96	48	2
BRK	95	288	3
BRK	95	288	7
TAP	96	0	1
TAP	96	0	5
TAP	96	48	1
TAP	96	48	5
TAP	96	96	3
TAP	96	96	7
TAP	96	144	3
TAP	96	144	7
TAP	96	192	1
TAP	96	192	5
TAP	96	240	1
TAP	96	240	5
TAP	96	264	2
TAP	96	264	6
TAP	96	288	3
TAP	96	288	7
TAP	96	336	1
TAP	96	336	5
STR	97	0	0
SCL	97	0	0	96	192	5
STR	97	0	4
SCL	97	0	4	96	192	1
STR	98	0	0
SCR	98	0	0	96	48	2
TAP	98	48	7
TAP	98	96	6
STR	98	144	5
SCR	98	144	5	96	48	7
TAP	98	192	4
TAP	98	240	3
STR	98	288	2
SCR	98	288	2	96	48	4
TAP	98	336	1
STR	99	0	0
SI_	99	0	0	96	48	3
STR	99	144	6
SI_	99	144	6	96	48	3
BRK	99	288	7
STR	100	0	7
SCL	100	0	7	96	48	5
TAP	100	48	0
TAP	100	96	1
STR	100	144	2
SCL	100	144	2	96	48	0
TAP	100	192	3
TAP	100	240	4
STR	100	288	5
SCL	100	288	5	96	48	3
TAP	100	336	6
STR	101	0	7
SI_	101	0	7	96	48	4
STR	101	144	1
SI_	101	144	1	96	48	4
BRK	101	288	0
STR	102	0	1
SCR	102	0	1	96	48	4
TAP	102	48	0
TAP	102	96	7
STR	102	144	6
SCR	102	144	6	96	48	1
TAP	102	192	5
TAP	102	240	4
STR	102	288	3
SCR	102	288	3	96	48	6
TAP	102	336	2
STR	103	0	1
SCL	103	0	1	96	48	6
STR	103	144	3
SCR	103	144	3	96	48	6
BRK	103	288	2
STR	104	0	6
SCL	104	0	6	96	48	3
TAP	104	48	7
TAP	104	96	0
STR	104	144	1
SCL	104	144	1	96	48	6
TAP	104	192	2
TAP	104	240	3
STR	104	288	4
SCL	104	288	4	96	48	1
TAP	104	336	5
STR	105	0	6
SCR	105	0	6	96	48	1
STR	105	144	4
SCL	105	144	4	96	48	1
STR	105	288	5
SCR	105	288	5	96	2208	4
BRK	111	288	0

T_REC_TAP	434
T_REC_BRK	42
T_REC_XTP	0
T_REC_HLD	37
T_REC_XHO	0
T_REC_STR	164
T_REC_BST	0
T_REC_XST	0
T_REC_TTP	0
T_REC_THO	0
T_REC_SLD	164
T_REC_ALL	841
T_NUM_TAP	598
T_NUM_BRK	42
T_NUM_HLD	37
T_NUM_SLD	164
T_NUM_ALL	841
T_JUDGE_TAP	640
T_JUDGE_HLD	138
T_JUDGE_SLD	164
T_JUDGE_ALL	942
TTM_EACHPAIRS	170
TTM_SCR_TAP	299000
TTM_SCR_BRK	109200
TTM_SCR_HLD	37000
TTM_SCR_SLD	246000
TTM_SCR_ALL	691200
TTM_SCR_S	666400
TTM_SCR_SS	687000
TTM_RAT_ACV	10061

