VERSION	0.00.00	1.03.00
FES_MODE	0
BPM_DEF	200.000	200.000	200.000	200.000
MET_DEF	4	4
RESOLUTION	384
CLK_DEF	384
COMPATIBLE_CODE	MA2

BPM	0	0	200.000
MET	0	0	4	4

HLD	2	0	3	576
HLD	2	0	4	576
TAP	3	288	3
TAP	3	288	4
HLD	4	0	5	576
HLD	4	0	7	576
TAP	5	288	5
TAP	5	288	7
HLD	6	0	0	192
HLD	6	0	2	192
HLD	7	0	4	192
HLD	7	0	6	192
HLD	8	0	1	192
HLD	8	0	3	192
TAP	9	0	5
TAP	9	48	5
TAP	9	96	2
TAP	9	144	2
TAP	9	192	4
TAP	9	240	4
TAP	9	288	3
TAP	10	0	4
TAP	10	0	5
TAP	10	96	4
TAP	10	96	5
TAP	10	192	2
TAP	10	192	3
TAP	10	288	2
TAP	10	288	3
TAP	11	0	4
TAP	11	0	5
TAP	11	96	4
TAP	11	96	5
TAP	11	192	2
TAP	11	192	3
TAP	11	288	2
TAP	11	288	3
TAP	12	0	4
TAP	12	0	5
TAP	12	96	4
TAP	12	96	5
TAP	12	192	2
TAP	12	192	3
TAP	12	288	2
TAP	12	288	3
TAP	13	0	0
TAP	13	0	1
TAP	13	96	2
TAP	13	96	3
TAP	13	192	4
TAP	13	192	5
TAP	14	0	2
TAP	14	0	3
TAP	14	96	2
TAP	14	96	3
TAP	14	192	4
TAP	14	192	5
TAP	14	288	4
TAP	14	288	5
TAP	15	0	2
TAP	15	0	3
TAP	15	96	2
TAP	15	96	3
TAP	15	192	4
TAP	15	192	5
TAP	15	288	4
TAP	15	288	5
TAP	16	0	2
TAP	16	0	3
TAP	16	96	2
TAP	16	96	3
TAP	16	192	4
TAP	16	192	5
TAP	16	288	4
TAP	16	288	5
TAP	17	0	6
TAP	17	0	7
TAP	17	96	4
TAP	17	96	5
TAP	17	192	2
TAP	17	192	3
TAP	18	0	4
TAP	18	0	6
TAP	18	96	4
TAP	18	96	5
TAP	18	192	1
TAP	18	192	3
TAP	18	288	2
TAP	18	288	3
TAP	19	0	4
TAP	19	0	6
TAP	19	96	4
TAP	19	96	5
TAP	19	192	1
TAP	19	192	3
TAP	19	288	2
TAP	19	288	3
TAP	20	0	4
TAP	20	0	6
TAP	20	96	4
TAP	20	96	5
TAP	20	192	1
TAP	20	192	3
TAP	20	288	2
TAP	20	288	3
TAP	21	0	0
TAP	21	0	2
TAP	21	96	2
TAP	21	96	3
TAP	21	192	3
TAP	21	192	5
TAP	22	0	1
TAP	22	0	3
TAP	22	96	2
TAP	22	96	3
TAP	22	192	4
TAP	22	192	6
TAP	22	288	4
TAP	22	288	5
TAP	23	0	1
TAP	23	0	3
TAP	23	96	2
TAP	23	96	3
TAP	23	192	4
TAP	23	192	6
TAP	23	288	4
TAP	23	288	5
TAP	24	0	1
TAP	24	0	3
TAP	24	96	2
TAP	24	96	3
TAP	24	192	4
TAP	24	192	6
TAP	24	288	4
TAP	24	288	5
TAP	25	0	5
TAP	25	0	7
TAP	25	96	4
TAP	25	96	5
TAP	25	192	2
TAP	25	192	4
TAP	26	0	6
TAP	26	0	7
TAP	26	96	4
TAP	26	96	6
TAP	26	192	0
TAP	26	192	1
TAP	26	288	1
TAP	26	288	3
TAP	27	0	6
TAP	27	0	7
TAP	27	96	4
TAP	27	96	6
TAP	27	192	0
TAP	27	192	1
TAP	27	288	1
TAP	27	288	3
TAP	28	0	6
TAP	28	0	7
TAP	28	96	4
TAP	28	96	6
TAP	28	192	0
TAP	28	192	1
TAP	28	288	1
TAP	28	288	3
TAP	29	0	6
TAP	29	0	7
TAP	29	96	4
TAP	29	96	6
TAP	29	192	2
TAP	29	192	3
TAP	30	0	0
TAP	30	0	1
TAP	30	96	1
TAP	30	96	3
TAP	30	192	6
TAP	30	192	7
TAP	30	288	4
TAP	30	288	6
TAP	31	0	0
TAP	31	0	1
TAP	31	96	1
TAP	31	96	3
TAP	31	192	6
TAP	31	192	7
TAP	31	288	4
TAP	31	288	6
TAP	32	0	0
TAP	32	0	1
TAP	32	96	1
TAP	32	96	3
TAP	32	192	6
TAP	32	192	7
TAP	32	288	4
TAP	32	288	6
TAP	33	0	0
TAP	33	0	1
TAP	33	96	1
TAP	33	96	3
TAP	33	192	4
TAP	33	192	5
BRK	33	288	0
TAP	34	0	5
HLD	34	0	6	96
TAP	34	96	5
HLD	34	192	1	96
TAP	34	192	2
TAP	34	288	2
HLD	35	0	6	96
TAP	35	0	7
TAP	35	96	7
TAP	35	192	0
TAP	35	192	1
TAP	35	288	2
TAP	35	288	7
TAP	36	0	4
HLD	36	0	5	96
TAP	36	96	4
TAP	36	192	0
HLD	36	192	1	96
TAP	36	288	0
TAP	37	0	6
TAP	37	0	7
TAP	37	48	6
TAP	37	48	7
TAP	37	96	0
TAP	37	96	5
TAP	37	144	0
TAP	37	144	5
TAP	37	192	1
TAP	37	192	4
HLD	38	0	1	96
TAP	38	0	2
TAP	38	96	2
TAP	38	192	5
HLD	38	192	6	96
TAP	38	288	5
TAP	39	0	0
HLD	39	0	1	96
TAP	39	96	0
TAP	39	192	6
TAP	39	192	7
TAP	39	288	0
TAP	39	288	5
HLD	40	0	2	96
TAP	40	0	3
TAP	40	96	3
HLD	40	192	6	96
TAP	40	192	7
TAP	40	288	7
STR	41	0	0
SCL	41	0	0	96	144	5
STR	41	0	1
SCR	41	0	1	96	144	4
TAP	42	0	4
TAP	42	0	5
TAP	42	48	5
TAP	42	96	4
TAP	42	96	5
TAP	42	192	2
TAP	42	192	3
TAP	42	240	2
TAP	42	288	2
TAP	42	288	3
TAP	43	0	3
TAP	43	0	5
TAP	43	48	5
TAP	43	96	3
TAP	43	96	5
TAP	43	192	2
TAP	43	192	3
TAP	43	240	2
TAP	43	288	2
TAP	43	288	3
TAP	44	0	4
TAP	44	0	5
TAP	44	48	5
TAP	44	96	3
TAP	44	96	5
TAP	44	192	2
TAP	44	192	3
TAP	44	240	2
TAP	44	288	2
TAP	44	288	4
STR	45	0	2
SUR	45	0	2	96	192	4
TAP	46	0	0
TAP	46	0	1
TAP	46	48	1
TAP	46	96	0
TAP	46	96	1
TAP	46	192	6
TAP	46	192	7
TAP	46	240	6
TAP	46	288	6
TAP	46	288	7
TAP	47	0	1
TAP	47	0	7
TAP	47	48	1
TAP	47	96	1
TAP	47	96	7
TAP	47	192	0
TAP	47	192	6
TAP	47	240	6
TAP	47	288	0
TAP	47	288	6
TAP	48	0	5
TAP	48	48	5
TAP	48	96	2
TAP	48	144	2
TAP	48	192	4
TAP	48	240	4
TAP	48	288	3
TAP	48	336	3
STR	49	0	4
SCR	49	0	4	96	192	3
HLD	50	0	4	96
TAP	50	96	5
HLD	50	144	5	96
TAP	50	240	6
TAP	50	288	6
HLD	51	0	0	96
TAP	51	96	1
HLD	51	144	1	96
TAP	51	240	2
TAP	51	288	2
HLD	52	0	3	96
TAP	52	96	2
HLD	52	144	2	96
TAP	52	240	1
TAP	52	288	1
HLD	53	0	7	96
TAP	53	96	6
HLD	53	144	6	96
TAP	53	240	5
TAP	53	288	5
HLD	54	0	0	96
TAP	54	96	1
HLD	54	144	1	96
TAP	54	240	2
TAP	54	288	2
HLD	55	0	4	96
TAP	55	96	5
HLD	55	144	5	96
TAP	55	240	6
TAP	55	288	6
HLD	56	0	7	96
TAP	56	96	6
HLD	56	144	6	96
TAP	56	240	5
TAP	56	288	5
TAP	57	0	0
TAP	57	0	7
TAP	57	96	1
TAP	57	96	6
TAP	57	144	1
TAP	57	144	6
TAP	57	240	2
TAP	57	240	5
TAP	57	288	2
TAP	57	288	5
TAP	58	0	3
HLD	58	0	4	192
TAP	58	96	5
HLD	58	192	3	192
TAP	58	288	2
HLD	59	0	4	192
TAP	59	96	5
HLD	59	192	3	192
TAP	59	288	2
HLD	60	0	4	192
TAP	60	96	6
HLD	60	192	3	192
TAP	60	288	1
HLD	61	0	4	192
TAP	61	96	6
TAP	61	192	3
HLD	62	0	3	192
TAP	62	0	4
TAP	62	96	2
HLD	62	192	4	192
TAP	62	288	5
HLD	63	0	3	192
TAP	63	96	1
HLD	63	192	4	192
TAP	63	288	6
HLD	64	0	3	192
TAP	64	96	0
HLD	64	192	4	192
TAP	64	288	7
HLD	65	0	3	192
TAP	65	96	0
TAP	65	192	4
BRK	65	288	1
BRK	65	288	6
TAP	66	0	0
HLD	66	0	7	192
TAP	66	96	6
HLD	66	192	0	192
TAP	66	288	1
HLD	67	0	7	192
TAP	67	96	6
HLD	67	192	0	192
TAP	67	288	1
HLD	68	0	7	192
TAP	68	96	5
HLD	68	192	0	192
TAP	68	288	2
HLD	69	0	7	192
TAP	69	96	5
TAP	69	192	0
HLD	70	0	0	192
TAP	70	0	7
TAP	70	96	1
HLD	70	192	7	192
TAP	70	288	6
HLD	71	0	0	192
TAP	71	96	2
HLD	71	192	7	192
TAP	71	288	5
HLD	72	0	0	192
TAP	72	96	3
HLD	72	192	7	192
TAP	72	288	4
TAP	73	0	0
STR	73	96	0
SI_	73	96	0	96	96	3
STR	73	96	7
SI_	73	96	7	96	96	4
TAP	74	0	0
HLD	74	0	1	96
TAP	74	96	2
HLD	74	192	6	96
TAP	74	192	7
TAP	74	288	5
HLD	75	0	1	96
TAP	75	0	3
TAP	75	96	0
TAP	75	192	6
TAP	75	192	7
TAP	75	288	0
TAP	75	288	5
HLD	76	0	2	96
TAP	76	0	3
TAP	76	96	1
HLD	76	192	6	96
TAP	76	192	7
TAP	76	288	5
TAP	77	0	0
TAP	77	0	1
TAP	77	48	0
TAP	77	48	1
TAP	77	96	2
TAP	77	96	7
TAP	77	144	2
TAP	77	144	7
TAP	77	192	3
TAP	77	192	6
HLD	78	0	6	96
TAP	78	0	7
TAP	78	96	5
TAP	78	192	0
HLD	78	192	1	96
TAP	78	288	2
TAP	79	0	4
HLD	79	0	6	96
TAP	79	96	7
TAP	79	192	0
TAP	79	192	1
TAP	79	288	2
TAP	79	288	7
TAP	80	0	4
HLD	80	0	5	96
TAP	80	96	6
TAP	80	192	0
HLD	80	192	1	96
TAP	80	288	2
STR	81	0	6
SCL	81	0	6	96	144	3
STR	81	0	7
SCR	81	0	7	96	144	2
TAP	82	0	0
TAP	82	0	1
TAP	82	96	4
TAP	82	96	6
TAP	82	192	6
TAP	82	192	7
TAP	82	288	1
TAP	82	288	3
TAP	83	0	0
TAP	83	0	1
TAP	83	96	4
TAP	83	96	6
TAP	83	192	2
TAP	83	192	3
TAP	83	288	0
TAP	83	288	5
TAP	84	0	6
TAP	84	0	7
TAP	84	96	1
TAP	84	96	3
TAP	84	192	0
TAP	84	192	1
TAP	84	288	4
TAP	84	288	6
STR	85	0	1
SCL	85	0	1	96	144	6
STR	85	0	3
SI_	85	0	3	96	144	6
TAP	86	0	6
TAP	86	0	7
TAP	86	96	1
TAP	86	96	3
TAP	86	192	0
TAP	86	192	1
TAP	86	288	4
TAP	86	288	6
TAP	87	0	6
TAP	87	0	7
TAP	87	96	1
TAP	87	96	3
TAP	87	192	4
TAP	87	192	5
TAP	87	288	2
TAP	87	288	7
TAP	88	0	0
TAP	88	0	1
TAP	88	96	4
TAP	88	96	6
TAP	88	192	6
TAP	88	192	7
TAP	88	288	1
TAP	88	288	3
STR	89	0	4
SI_	89	0	4	96	144	1
STR	89	0	6
SCR	89	0	6	96	144	1
TAP	90	0	6
TAP	90	0	7
TAP	90	48	6
TAP	90	96	4
TAP	90	96	6
TAP	90	192	0
TAP	90	192	1
TAP	90	240	1
TAP	90	288	1
TAP	90	288	3
TAP	91	0	6
TAP	91	0	7
TAP	91	48	6
TAP	91	96	4
TAP	91	96	6
TAP	91	192	0
TAP	91	192	1
TAP	91	240	1
TAP	91	288	1
TAP	91	288	3
TAP	92	0	0
TAP	92	0	6
TAP	92	48	6
TAP	92	96	4
TAP	92	96	6
TAP	92	192	1
TAP	92	192	7
TAP	92	240	1
TAP	92	288	1
TAP	92	288	3
TAP	93	0	0
TAP	93	0	7
TAP	93	48	0
TAP	93	48	7
TAP	93	96	1
TAP	93	96	6
TAP	93	144	1
TAP	93	144	6
TAP	93	192	2
TAP	93	192	5
TAP	93	240	2
TAP	93	240	5
TAP	93	288	3
TAP	93	288	4
TAP	93	336	3
TAP	93	336	4
HLD	94	0	3	672
STR	94	0	4
SCR	94	0	4	96	384	2
BRK	95	288	7
TAP	96	0	0
TAP	96	48	0
TAP	96	96	7
TAP	96	144	7
TAP	96	192	1
TAP	96	240	1
TAP	96	288	6
TAP	96	336	6
STR	97	0	0
SSL	97	0	0	96	192	4
TAP	98	0	4
TAP	98	48	4
TAP	98	96	3
TAP	98	144	4
TAP	98	192	4
TAP	98	240	5
TAP	98	288	4
TAP	98	336	3
HLD	99	0	4	96
TAP	99	96	5
HLD	99	144	5	96
TAP	99	240	6
TAP	99	288	6
TAP	100	0	3
TAP	100	48	3
TAP	100	96	4
TAP	100	144	3
TAP	100	192	3
TAP	100	240	2
TAP	100	288	3
TAP	100	336	4
HLD	101	0	3	96
TAP	101	96	2
HLD	101	144	2	96
TAP	101	240	1
TAP	101	288	1
TAP	102	0	7
TAP	102	48	7
TAP	102	96	0
TAP	102	144	7
TAP	102	192	7
TAP	102	240	6
TAP	102	288	7
TAP	102	336	0
HLD	103	0	7	96
TAP	103	96	6
HLD	103	144	6	96
TAP	103	240	5
TAP	103	288	5
TAP	104	0	0
TAP	104	48	0
TAP	104	96	7
TAP	104	144	0
TAP	104	192	0
TAP	104	240	1
TAP	104	288	0
TAP	104	336	7
STR	105	0	0
SI_	105	0	0	96	96	4
STR	105	144	7
SI_	105	144	7	96	96	3
HLD	105	288	0	2256
STR	106	168	7
SCL	106	168	7	96	1272	1

T_REC_TAP	534
T_REC_BRK	4
T_REC_XTP	0
T_REC_HLD	79
T_REC_XHO	0
T_REC_STR	17
T_REC_BST	0
T_REC_XST	0
T_REC_TTP	0
T_REC_THO	0
T_REC_SLD	17
T_REC_ALL	651
T_NUM_TAP	551
T_NUM_BRK	4
T_NUM_HLD	79
T_NUM_SLD	17
T_NUM_ALL	651
T_JUDGE_TAP	555
T_JUDGE_HLD	321
T_JUDGE_SLD	17
T_JUDGE_ALL	893
TTM_EACHPAIRS	215
TTM_SCR_TAP	275500
TTM_SCR_BRK	10400
TTM_SCR_HLD	79000
TTM_SCR_SLD	25500
TTM_SCR_ALL	390400
TTM_SCR_S	378300
TTM_SCR_SS	390000
TTM_RAT_ACV	10010

