VERSION	0.00.00	1.03.00
FES_MODE	0
BPM_DEF	200.000	200.000	200.000	200.000
MET_DEF	4	4
RESOLUTION	384
CLK_DEF	384
COMPATIBLE_CODE	MA2

BPM	0	0	200.000
MET	0	0	4	4

HLD	2	0	0	672
HLD	2	0	1	672
HLD	4	0	6	672
HLD	4	0	7	672
HLD	6	0	0	288
HLD	6	0	7	288
HLD	7	0	0	288
HLD	7	0	7	288
HLD	8	0	1	192
HLD	8	0	6	192
TAP	9	0	0
TAP	9	96	0
TAP	9	192	7
BRK	9	288	7
TAP	10	0	2
TAP	10	0	3
TAP	10	96	2
TAP	10	192	3
TAP	10	288	2
TAP	11	0	4
TAP	11	0	5
TAP	11	96	5
TAP	11	192	4
TAP	11	288	5
TAP	12	0	2
TAP	12	0	3
TAP	12	96	2
TAP	12	192	3
TAP	12	288	4
TAP	13	0	5
TAP	13	96	4
TAP	13	192	3
TAP	13	192	6
TAP	14	0	4
TAP	14	0	5
TAP	14	96	5
TAP	14	192	4
TAP	14	288	5
TAP	15	0	2
TAP	15	0	3
TAP	15	96	2
TAP	15	192	3
TAP	15	288	2
TAP	16	0	4
TAP	16	0	5
TAP	16	96	5
TAP	16	192	4
TAP	16	288	3
TAP	17	0	2
TAP	17	96	3
TAP	17	192	1
TAP	17	192	4
TAP	18	0	2
TAP	18	0	3
TAP	18	96	2
TAP	18	192	4
TAP	18	192	5
TAP	18	288	5
TAP	19	0	2
TAP	19	96	3
TAP	19	192	4
TAP	19	288	5
TAP	20	0	4
TAP	20	0	5
TAP	20	96	5
TAP	20	192	2
TAP	20	192	3
TAP	20	288	2
TAP	21	0	5
TAP	21	96	4
TAP	21	192	2
TAP	21	192	3
TAP	22	0	4
TAP	22	0	5
TAP	22	96	5
TAP	22	192	2
TAP	22	192	3
TAP	22	288	2
TAP	23	0	5
TAP	23	96	4
TAP	23	192	3
TAP	23	288	2
TAP	24	0	2
TAP	24	0	3
TAP	24	96	2
TAP	24	192	4
TAP	24	192	5
TAP	24	288	5
TAP	25	0	2
TAP	25	96	3
BRK	25	192	4
BRK	25	192	5
TAP	26	0	2
TAP	26	0	3
TAP	26	96	3
TAP	26	96	4
TAP	26	192	2
TAP	26	192	3
TAP	26	288	3
TAP	26	288	4
TAP	27	0	3
TAP	27	96	2
TAP	27	192	1
TAP	27	288	0
TAP	28	0	0
TAP	28	0	1
TAP	28	96	0
TAP	28	96	7
TAP	28	192	0
TAP	28	192	1
TAP	28	288	0
TAP	28	288	7
TAP	29	0	7
TAP	29	96	6
TAP	29	192	4
TAP	29	192	5
TAP	30	0	4
TAP	30	0	5
TAP	30	96	3
TAP	30	96	4
TAP	30	192	4
TAP	30	192	5
TAP	30	288	3
TAP	30	288	4
TAP	31	0	4
TAP	31	96	5
TAP	31	192	6
TAP	31	288	7
TAP	32	0	6
TAP	32	0	7
TAP	32	96	0
TAP	32	96	7
TAP	32	192	6
TAP	32	192	7
TAP	32	288	0
TAP	32	288	7
TAP	33	0	0
TAP	33	96	1
BRK	33	192	2
BRK	33	192	3
STR	34	0	0
SI_	34	0	0	96	96	3
STR	34	192	7
SI_	34	192	7	96	96	4
TAP	35	0	3
TAP	35	96	3
TAP	35	192	1
TAP	35	192	6
TAP	35	288	1
TAP	35	288	6
TAP	36	0	2
TAP	36	0	3
TAP	36	96	4
TAP	36	96	5
TAP	36	192	2
TAP	36	192	3
TAP	36	288	4
TAP	36	288	5
TAP	37	0	0
TAP	37	0	7
TAP	37	96	1
TAP	37	96	6
BRK	37	192	2
BRK	37	192	5
STR	38	0	4
SI_	38	0	4	96	96	7
STR	38	192	3
SI_	38	192	3	96	96	0
TAP	39	0	7
TAP	39	96	7
TAP	39	192	2
TAP	39	192	5
TAP	39	288	2
TAP	39	288	5
TAP	40	0	4
TAP	40	0	5
TAP	40	96	2
TAP	40	96	3
TAP	40	192	4
TAP	40	192	5
TAP	40	288	2
TAP	40	288	3
STR	41	0	3
SCL	41	0	3	96	144	0
STR	41	0	4
SCR	41	0	4	96	144	7
STR	42	0	0
SCR	42	0	0	96	72	2
STR	42	192	4
SCR	42	192	4	96	72	6
TAP	43	0	3
TAP	43	96	3
TAP	43	192	1
TAP	43	192	5
TAP	43	288	1
TAP	43	288	5
TAP	44	0	0
TAP	44	0	1
TAP	44	96	6
TAP	44	96	7
TAP	44	192	0
TAP	44	192	1
TAP	44	288	6
TAP	44	288	7
TAP	45	0	2
TAP	45	0	5
TAP	45	96	1
TAP	45	96	6
BRK	45	192	0
BRK	45	192	7
STR	46	0	7
SCL	46	0	7	96	72	5
STR	46	192	3
SCL	46	192	3	96	72	1
TAP	47	0	4
TAP	47	96	4
TAP	47	192	2
TAP	47	192	6
TAP	47	288	2
TAP	47	288	6
TAP	48	0	6
TAP	48	0	7
TAP	48	96	0
TAP	48	96	1
TAP	48	192	6
TAP	48	192	7
TAP	48	288	0
TAP	48	288	1
STR	49	0	6
SUL	49	0	6	96	192	2
STR	49	0	7
SUL	49	0	7	96	192	2
HLD	50	0	0	288
HLD	51	0	1	288
HLD	51	0	7	288
HLD	52	0	7	288
HLD	53	0	0	288
HLD	53	0	6	288
HLD	54	0	3	288
HLD	55	0	2	288
HLD	55	0	4	288
HLD	56	0	4	288
TAP	57	0	3
TAP	57	0	5
TAP	57	144	2
TAP	57	144	4
BRK	57	288	2
BRK	57	288	5
TAP	58	0	0
TAP	58	0	1
TAP	58	96	0
TAP	58	96	1
TAP	58	192	4
TAP	58	192	5
TAP	58	288	4
TAP	58	288	5
TAP	59	0	0
TAP	59	0	1
TAP	59	96	0
TAP	59	96	1
TAP	59	192	4
TAP	59	192	5
TAP	59	288	4
TAP	59	288	5
TAP	60	0	6
TAP	60	0	7
TAP	60	96	6
TAP	60	96	7
TAP	60	192	2
TAP	60	192	3
TAP	60	288	2
TAP	60	288	3
TAP	61	0	6
TAP	61	0	7
TAP	61	96	6
TAP	61	96	7
BRK	61	192	2
BRK	61	192	3
TAP	62	0	2
TAP	62	0	3
TAP	62	96	2
TAP	62	96	3
TAP	62	192	5
TAP	62	192	6
TAP	62	288	5
TAP	62	288	6
TAP	63	0	4
TAP	63	0	5
TAP	63	96	4
TAP	63	96	5
TAP	63	192	1
TAP	63	192	2
TAP	63	288	1
TAP	63	288	2
TAP	64	0	2
TAP	64	0	3
TAP	64	96	5
TAP	64	96	6
TAP	64	192	4
TAP	64	192	5
TAP	64	288	1
TAP	64	288	2
TAP	65	0	2
TAP	65	0	3
TAP	65	96	4
TAP	65	96	5
TAP	65	192	1
TAP	65	192	6
TAP	66	0	2
TAP	66	0	3
TAP	66	96	1
TAP	66	96	4
TAP	66	192	2
TAP	66	192	3
TAP	66	288	1
TAP	66	288	4
TAP	67	0	1
TAP	67	0	3
TAP	67	96	1
TAP	67	96	3
TAP	67	192	4
TAP	67	192	6
TAP	67	288	4
TAP	67	288	6
TAP	68	0	4
TAP	68	0	5
TAP	68	96	3
TAP	68	96	6
TAP	68	192	4
TAP	68	192	5
TAP	68	288	3
TAP	68	288	6
TAP	69	0	4
TAP	69	0	6
TAP	69	96	4
TAP	69	96	6
TAP	69	192	3
TAP	69	192	7
TAP	70	0	3
TAP	70	0	7
TAP	70	96	3
TAP	70	96	7
TAP	70	192	1
TAP	70	192	5
TAP	70	288	1
TAP	70	288	5
TAP	71	0	3
TAP	71	0	7
TAP	71	96	2
TAP	71	96	6
TAP	71	192	1
TAP	71	192	5
TAP	71	288	0
TAP	71	288	4
TAP	72	0	0
TAP	72	0	4
TAP	72	96	0
TAP	72	96	4
TAP	72	192	2
TAP	72	192	6
TAP	72	288	2
TAP	72	288	6
TAP	73	0	0
TAP	73	0	4
TAP	73	96	1
TAP	73	96	5
BRK	73	192	2
BRK	73	192	6
STR	74	0	0
SI_	74	0	0	96	72	2
STR	74	192	7
SI_	74	192	7	96	96	3
TAP	75	0	0
TAP	75	96	0
TAP	75	192	1
TAP	75	192	7
TAP	75	288	2
TAP	75	288	6
STR	76	0	7
SI_	76	0	7	96	72	5
STR	76	192	0
SI_	76	192	0	96	96	4
TAP	77	0	7
TAP	77	96	7
TAP	77	192	2
TAP	77	192	5
STR	78	0	3
SI_	78	0	3	96	72	1
STR	78	192	4
SI_	78	192	4	96	96	0
TAP	79	0	3
TAP	79	96	3
TAP	79	192	2
TAP	79	192	4
TAP	79	288	1
TAP	79	288	5
STR	80	0	4
SI_	80	0	4	96	72	6
STR	80	192	3
SI_	80	192	3	96	96	7
TAP	81	0	4
TAP	81	96	4
BRK	81	192	1
BRK	81	192	6
STR	82	0	1
SCR	82	0	1	96	72	3
STR	82	192	6
SCL	82	192	6	96	72	4
STR	83	0	0
SCR	83	0	0	96	72	2
STR	83	192	7
SCL	83	192	7	96	72	5
TAP	84	0	3
TAP	84	96	4
TAP	84	192	3
TAP	84	288	4
TAP	85	0	2
TAP	85	0	5
TAP	85	96	1
TAP	85	96	6
TAP	85	192	0
TAP	85	192	7
STR	86	0	2
SCL	86	0	2	96	72	0
STR	86	192	5
SCR	86	192	5	96	72	7
STR	87	0	3
SCL	87	0	3	96	72	1
STR	87	192	4
SCR	87	192	4	96	72	6
TAP	88	0	0
TAP	88	96	7
TAP	88	192	0
TAP	88	288	7
TAP	89	0	0
TAP	89	0	7
TAP	89	96	1
TAP	89	96	6
BRK	89	192	2
BRK	89	192	5
STR	90	0	0
SV_	90	0	0	96	96	2
STR	90	192	7
SV_	90	192	7	96	96	5
STR	91	0	1
SV_	91	0	1	96	96	3
STR	91	192	6
SV_	91	192	6	96	96	4
TAP	92	0	3
TAP	92	96	4
TAP	92	192	1
TAP	92	288	6
TAP	93	0	2
TAP	93	0	3
TAP	93	96	0
TAP	93	96	1
TAP	93	192	6
TAP	93	192	7
TAP	93	288	4
TAP	93	288	5
STR	94	0	3
SV_	94	0	3	96	96	1
STR	94	192	4
SV_	94	192	4	96	96	6
STR	95	0	2
SV_	95	0	2	96	96	0
STR	95	192	5
SV_	95	192	5	96	96	7
TAP	96	0	0
TAP	96	96	7
TAP	96	192	2
TAP	96	288	5
TAP	97	0	2
TAP	97	0	3
TAP	97	96	4
TAP	97	96	5
BRK	97	192	0
BRK	97	192	7
HLD	98	0	0	144
TAP	98	288	0
HLD	99	0	1	144
HLD	99	144	2	144
TAP	99	288	3
HLD	100	0	7	144
TAP	100	288	7
HLD	101	0	6	144
HLD	101	144	5	144
TAP	101	288	4
HLD	102	0	3	144
TAP	102	288	3
HLD	103	0	2	144
HLD	103	144	3	144
TAP	103	288	4
HLD	104	0	4	144
TAP	104	288	4
HLD	105	0	5	144
HLD	105	144	4	144
STR	105	288	3
SCL	105	288	3	96	1152	4

T_REC_TAP	372
T_REC_BRK	21
T_REC_XTP	0
T_REC_HLD	32
T_REC_XHO	0
T_REC_STR	37
T_REC_BST	0
T_REC_XST	0
T_REC_TTP	0
T_REC_THO	0
T_REC_SLD	37
T_REC_ALL	499
T_NUM_TAP	409
T_NUM_BRK	21
T_NUM_HLD	32
T_NUM_SLD	37
T_NUM_ALL	499
T_JUDGE_TAP	430
T_JUDGE_HLD	184
T_JUDGE_SLD	37
T_JUDGE_ALL	651
TTM_EACHPAIRS	158
TTM_SCR_TAP	204500
TTM_SCR_BRK	54600
TTM_SCR_HLD	32000
TTM_SCR_SLD	55500
TTM_SCR_ALL	346600
TTM_SCR_S	334200
TTM_SCR_SS	344500
TTM_RAT_ACV	10060

