VERSION	0.00.00	1.03.00
FES_MODE	0
BPM_DEF	200.000	200.000	200.000	200.000
MET_DEF	4	4
RESOLUTION	384
CLK_DEF	384
COMPATIBLE_CODE	MA2

BPM	0	0	200.000
MET	0	0	4	4

TAP	10	0	0
TAP	10	192	0
TAP	11	0	1
TAP	11	192	1
TAP	12	0	2
TAP	12	192	2
TAP	13	0	3
TAP	13	192	3
TAP	14	0	4
TAP	14	192	4
TAP	15	0	5
TAP	15	192	5
TAP	16	0	6
TAP	16	192	6
TAP	17	0	0
TAP	17	0	7
TAP	18	0	7
TAP	18	192	7
TAP	19	0	6
TAP	19	192	6
TAP	20	0	5
TAP	20	192	5
TAP	21	0	4
TAP	21	192	4
TAP	22	0	3
TAP	22	192	3
TAP	23	0	2
TAP	23	192	2
TAP	24	0	1
TAP	24	192	1
TAP	25	0	0
TAP	25	0	7
TAP	26	0	1
TAP	26	192	2
TAP	27	0	3
TAP	27	192	4
TAP	28	0	5
TAP	28	192	6
TAP	29	0	0
TAP	29	0	7
TAP	30	0	6
TAP	30	192	5
TAP	31	0	4
TAP	31	192	3
TAP	32	0	2
TAP	32	192	1
TAP	33	0	0
TAP	33	0	7
TAP	34	0	0
TAP	34	192	0
TAP	35	0	1
TAP	35	96	1
TAP	35	192	1
TAP	36	0	2
TAP	36	192	2
TAP	37	0	3
TAP	37	96	3
TAP	37	192	3
TAP	38	0	4
TAP	38	192	4
TAP	39	0	5
TAP	39	96	5
TAP	39	192	5
TAP	40	0	6
TAP	40	192	6
BRK	41	0	0
BRK	41	0	7
TAP	42	0	7
TAP	42	192	7
TAP	43	0	6
TAP	43	96	6
TAP	43	192	6
TAP	44	0	5
TAP	44	192	5
TAP	45	0	4
TAP	45	96	4
TAP	45	192	4
TAP	46	0	3
TAP	46	192	3
TAP	47	0	2
TAP	47	96	2
TAP	47	192	2
TAP	48	0	1
TAP	48	192	1
BRK	49	0	0
BRK	49	0	7
HLD	50	0	7	192
TAP	51	0	6
TAP	51	192	6
HLD	52	0	5	192
TAP	53	0	4
TAP	53	192	4
HLD	54	0	3	192
TAP	55	0	2
TAP	55	192	2
HLD	56	0	1	192
TAP	57	0	0
TAP	57	192	0
TAP	58	0	0
TAP	58	192	1
TAP	59	0	2
TAP	59	192	3
TAP	60	0	4
TAP	60	192	5
TAP	61	0	6
TAP	61	192	0
TAP	61	192	7
TAP	62	0	7
TAP	62	192	6
TAP	63	0	5
TAP	63	192	4
TAP	64	0	3
TAP	64	192	2
TAP	65	0	1
TAP	65	192	0
TAP	65	192	7
TAP	66	0	1
TAP	66	192	3
TAP	67	0	5
TAP	67	192	7
TAP	68	0	1
TAP	68	192	3
TAP	69	0	5
TAP	69	192	0
TAP	69	192	7
TAP	70	0	6
TAP	70	192	4
TAP	71	0	2
TAP	71	192	0
TAP	72	0	6
TAP	72	192	4
TAP	73	0	2
TAP	73	192	0
TAP	73	192	7
TAP	74	0	0
TAP	74	96	0
TAP	74	192	1
TAP	74	288	1
TAP	75	0	0
TAP	75	0	1
TAP	75	192	0
TAP	75	192	1
TAP	76	0	2
TAP	76	96	2
TAP	76	192	3
TAP	76	288	3
TAP	77	0	2
TAP	77	0	3
TAP	77	192	2
TAP	77	192	3
TAP	78	0	4
TAP	78	96	4
TAP	78	192	5
TAP	78	288	5
TAP	79	0	4
TAP	79	0	5
TAP	79	192	4
TAP	79	192	5
TAP	80	0	6
TAP	80	96	6
TAP	80	192	7
TAP	80	288	7
BRK	81	0	0
BRK	81	0	7
TAP	82	0	7
TAP	82	96	7
TAP	82	192	6
TAP	82	288	6
TAP	83	0	6
TAP	83	0	7
TAP	83	192	6
TAP	83	192	7
TAP	84	0	5
TAP	84	96	5
TAP	84	192	4
TAP	84	288	4
TAP	85	0	4
TAP	85	0	5
TAP	85	192	4
TAP	85	192	5
TAP	86	0	3
TAP	86	96	3
TAP	86	192	2
TAP	86	288	2
TAP	87	0	2
TAP	87	0	3
TAP	87	192	2
TAP	87	192	3
TAP	88	0	1
TAP	88	96	1
TAP	88	192	0
TAP	88	288	0
BRK	89	0	0
BRK	89	0	7
TAP	90	0	1
TAP	90	96	1
TAP	90	192	2
TAP	90	288	2
TAP	91	0	3
TAP	91	96	3
TAP	91	192	4
TAP	91	288	4
TAP	92	0	5
TAP	92	96	5
TAP	92	192	6
TAP	92	288	6
BRK	93	0	0
BRK	93	0	7
BRK	93	96	0
BRK	93	96	7
BRK	93	192	0
BRK	93	192	7
TAP	94	0	6
TAP	94	96	6
TAP	94	192	5
TAP	94	288	5
TAP	95	0	4
TAP	95	96	4
TAP	95	192	3
TAP	95	288	3
TAP	96	0	2
TAP	96	96	2
TAP	96	192	1
TAP	96	288	1
BRK	97	0	0
BRK	97	0	7
STR	98	0	1
SI_	98	0	1	96	288	5
STR	100	0	6
SI_	100	0	6	96	288	2
STR	102	0	0
SI_	102	0	0	96	288	4
STR	104	0	7
SI_	104	0	7	96	288	3

T_REC_TAP	206
T_REC_BRK	16
T_REC_XTP	0
T_REC_HLD	4
T_REC_XHO	0
T_REC_STR	4
T_REC_BST	0
T_REC_XST	0
T_REC_TTP	0
T_REC_THO	0
T_REC_SLD	4
T_REC_ALL	234
T_NUM_TAP	210
T_NUM_BRK	16
T_NUM_HLD	4
T_NUM_SLD	4
T_NUM_ALL	234
T_JUDGE_TAP	226
T_JUDGE_HLD	16
T_JUDGE_SLD	4
T_JUDGE_ALL	246
TTM_EACHPAIRS	28
TTM_SCR_TAP	105000
TTM_SCR_BRK	41600
TTM_SCR_HLD	4000
TTM_SCR_SLD	6000
TTM_SCR_ALL	156600
TTM_SCR_S	150350
TTM_SCR_SS	155000
TTM_RAT_ACV	10103

