VERSION	0.00.00	1.03.00
FES_MODE	0
BPM_DEF	135.000	135.000	135.000	135.000
MET_DEF	4	4
RESOLUTION	384
CLK_DEF	384
COMPATIBLE_CODE	MA2

BPM	0	0	135.000
MET	0	0	4	4

STR	1	0	0
SCR	1	0	0	96	480	7
BRK	1	0	4
BRK	3	0	3
STR	3	0	7
SCL	3	0	7	96	480	0
STR	5	0	0
SCR	5	0	0	96	288	4
BRK	5	0	4
TAP	5	96	5
TAP	5	192	6
TAP	5	288	7
TAP	6	0	0
TAP	6	96	1
TAP	6	192	2
TAP	6	288	3
BRK	7	0	3
STR	7	0	7
SCL	7	0	7	96	288	3
TAP	7	96	2
TAP	7	192	1
TAP	7	288	0
TAP	8	0	7
TAP	8	96	6
TAP	8	192	5
TAP	8	288	4
STR	9	0	1
SCR	9	0	1	96	48	4
HLD	9	0	5	96
TAP	9	192	5
TAP	9	216	4
TAP	9	240	6
TAP	9	264	3
TAP	9	288	5
HLD	10	0	2	96
STR	10	0	6
SCL	10	0	6	96	48	3
TAP	10	192	2
TAP	10	216	3
TAP	10	240	1
TAP	10	264	4
TAP	10	288	2
TAP	11	0	0
TAP	11	0	1
TAP	11	96	6
TAP	11	96	7
TAP	11	192	0
TAP	11	216	7
TAP	11	240	1
TAP	11	264	6
TAP	11	288	2
TAP	11	312	5
TAP	11	336	3
TAP	11	360	4
STR	12	0	3
SI_	12	0	3	96	48	7
STR	12	96	4
SI_	12	96	4	96	48	0
STR	12	192	2
SCL	12	192	2	96	96	5
HLD	13	0	7	72
HLD	13	72	6	72
HLD	13	144	5	96
TAP	13	240	4
TAP	13	288	5
TAP	13	312	4
TAP	13	336	6
HLD	14	0	0	72
HLD	14	72	1	72
HLD	14	144	2	96
TAP	14	240	3
TAP	14	288	2
TAP	14	312	3
TAP	14	336	1
HLD	15	0	7	72
HLD	15	72	6	72
HLD	15	144	5	240
TAP	15	240	4
TAP	15	288	7
TAP	15	336	3
HLD	16	0	0	72
HLD	16	72	1	72
HLD	16	144	2	240
TAP	16	240	3
TAP	16	288	0
TAP	16	336	4
STR	17	0	7
SI_	17	0	7	96	48	3
STR	17	72	1
SCR	17	72	1	96	48	5
TAP	17	240	7
TAP	17	288	6
TAP	17	312	4
TAP	17	336	5
STR	18	0	0
SI_	18	0	0	96	48	4
STR	18	72	6
SCL	18	72	6	96	48	2
TAP	18	240	0
TAP	18	288	1
TAP	18	312	3
TAP	18	336	2
TAP	19	0	1
HLD	19	0	5	336
TAP	19	96	4
TAP	19	144	6
TAP	19	192	3
TAP	19	240	7
TAP	19	288	2
TAP	19	336	0
HLD	20	0	2	336
TAP	20	0	6
TAP	20	96	3
TAP	20	144	1
TAP	20	192	4
TAP	20	240	0
TAP	20	288	5
TAP	20	336	7
TAP	21	0	5
TAP	21	0	6
TAP	21	48	5
TAP	21	72	4
TAP	21	120	1
TAP	21	144	0
TAP	21	192	3
TAP	21	192	6
TAP	21	240	1
TAP	21	240	4
TAP	21	288	2
TAP	21	312	3
TAP	21	336	1
TAP	22	0	1
TAP	22	0	2
TAP	22	48	2
TAP	22	72	3
TAP	22	120	6
TAP	22	144	7
TAP	22	192	1
TAP	22	192	4
TAP	22	240	3
TAP	22	240	6
TAP	22	288	5
TAP	22	312	4
TAP	22	336	6
TAP	23	0	5
TAP	23	0	6
TAP	23	48	6
TAP	23	72	7
TAP	23	120	2
TAP	23	144	3
TAP	23	192	0
TAP	23	192	5
TAP	23	240	2
TAP	23	240	7
TAP	23	288	1
TAP	23	312	0
TAP	23	336	2
TAP	24	0	1
TAP	24	0	2
TAP	24	48	1
TAP	24	72	0
TAP	24	120	5
TAP	24	144	4
TAP	24	192	2
TAP	24	192	7
TAP	24	240	0
TAP	24	240	5
TAP	24	288	6
TAP	24	312	7
TAP	24	336	5
TAP	25	0	5
TAP	25	0	6
TAP	25	48	2
TAP	25	72	4
TAP	25	120	4
TAP	25	144	6
TAP	25	192	5
TAP	25	216	3
TAP	25	240	7
TAP	25	288	2
TAP	25	312	4
TAP	25	336	0
TAP	26	0	1
TAP	26	0	2
TAP	26	48	5
TAP	26	72	3
TAP	26	120	3
TAP	26	144	1
TAP	26	192	2
TAP	26	216	4
TAP	26	240	0
TAP	26	288	5
TAP	26	312	3
TAP	26	336	7
TAP	27	0	5
TAP	27	0	6
TAP	27	48	3
TAP	27	72	7
TAP	27	120	5
TAP	27	144	1
TAP	27	192	5
TAP	27	216	4
TAP	27	240	0
TAP	27	288	2
TAP	27	312	4
TAP	27	336	0
TAP	28	0	1
TAP	28	0	2
TAP	28	48	4
TAP	28	72	0
TAP	28	120	2
TAP	28	144	6
TAP	28	192	2
TAP	28	216	3
TAP	28	240	7
TAP	28	288	5
TAP	28	312	3
TAP	28	336	7
HLD	29	0	0	96
HLD	29	0	1	96
HLD	29	144	3	96
HLD	29	144	6	96
TAP	29	288	5
TAP	29	312	4
TAP	29	336	5
HLD	30	0	2	96
HLD	30	0	3	96
STR	30	144	0
SI_	30	144	0	96	48	3
TAP	30	144	1
TAP	30	240	0
STR	30	240	7
SI_	30	240	7	96	48	4
BRK	30	312	6
HLD	31	0	5	96
HLD	31	144	2	96
HLD	31	144	7	96
TAP	31	288	1
TAP	31	312	0
TAP	31	336	1
HLD	32	0	2	96
HLD	32	0	3	96
TAP	32	144	0
TAP	32	144	5
TAP	32	192	7
TAP	32	216	6
TAP	32	240	5
TAP	32	264	4
TAP	32	288	3
TAP	32	312	2
TAP	32	336	1
TAP	32	360	0
HLD	33	0	6	96
HLD	33	0	7	96
HLD	33	144	1	96
HLD	33	144	4	96
TAP	33	288	2
TAP	33	312	3
TAP	33	336	2
HLD	34	0	4	96
HLD	34	0	5	96
TAP	34	144	6
STR	34	144	7
SI_	34	144	7	96	48	4
STR	34	240	0
SI_	34	240	0	96	48	3
TAP	34	240	7
BRK	34	312	1
HLD	35	0	2	96
HLD	35	144	0	96
HLD	35	144	5	96
TAP	35	288	6
TAP	35	312	7
TAP	35	336	6
HLD	36	0	4	96
HLD	36	0	5	96
TAP	36	144	3
TAP	36	144	7
STR	36	192	1
SI_	36	192	1	96	48	6
STR	36	192	5
SI_	36	192	5	96	48	2
BRK	36	288	1
BRK	36	288	5
BRK	37	0	0
STR	37	0	4
SCR	37	0	4	96	1056	4
TAP	37	96	4
TAP	37	192	4
TAP	37	288	4
TAP	38	0	4
TAP	38	96	4
TAP	38	192	4
TAP	38	288	4
TAP	39	0	5
TAP	39	96	6
TAP	39	192	7
TAP	39	288	0
TAP	40	0	1
TAP	40	96	2
TAP	40	192	3
TAP	40	288	4
TAP	40	336	2
TAP	40	360	3
TAP	41	0	2
TAP	41	48	2
TAP	41	72	3
TAP	41	120	6
TAP	41	144	4
TAP	41	192	1
TAP	41	192	3
TAP	41	288	0
TAP	41	288	7
TAP	41	336	5
TAP	41	360	4
TAP	42	0	5
TAP	42	48	5
TAP	42	72	4
TAP	42	120	1
TAP	42	144	3
TAP	42	192	4
TAP	42	192	6
TAP	42	288	0
TAP	42	288	7
TAP	42	336	4
TAP	42	360	3
TAP	43	0	4
TAP	43	48	1
TAP	43	72	4
TAP	43	120	6
TAP	43	144	3
TAP	43	192	1
TAP	43	192	4
TAP	43	288	2
TAP	43	288	5
TAP	44	0	3
TAP	44	0	6
TAP	44	96	4
TAP	44	96	7
TAP	44	192	0
TAP	44	192	5
TAP	44	288	1
TAP	44	288	6
TAP	44	336	7
TAP	44	360	0
TAP	45	0	7
TAP	45	48	2
TAP	45	72	0
TAP	45	120	5
TAP	45	144	7
TAP	45	192	0
TAP	45	216	7
TAP	45	240	1
TAP	45	264	6
TAP	45	288	2
TAP	45	312	5
TAP	45	336	3
TAP	45	360	4
TAP	46	0	2
TAP	46	24	3
TAP	46	48	1
TAP	46	72	4
TAP	46	96	0
TAP	46	120	5
TAP	46	144	7
TAP	46	168	6
TAP	46	192	0
TAP	46	216	7
TAP	46	240	1
TAP	46	264	0
TAP	46	288	2
TAP	46	312	7
TAP	46	336	3
TAP	46	360	6
TAP	47	0	4
TAP	47	24	5
TAP	47	48	6
TAP	47	72	4
TAP	47	96	7
TAP	47	120	3
TAP	47	144	0
TAP	47	168	2
TAP	47	192	1
TAP	47	216	0
TAP	47	240	2
TAP	47	264	7
TAP	47	288	3
TAP	47	312	6
TAP	47	336	4
TAP	47	360	5
TAP	48	0	3
TAP	48	24	4
TAP	48	48	2
TAP	48	72	3
TAP	48	96	1
TAP	48	120	4
TAP	48	144	0
TAP	48	168	5
TAP	48	192	7
TAP	48	216	6
TAP	48	240	0
TAP	48	264	7
TAP	48	288	2
TAP	48	312	5
TAP	48	336	0
TAP	48	360	7
BRK	49	0	1
BRK	49	0	6
TAP	49	192	3
TAP	49	240	5
TAP	49	240	7
TAP	49	288	4
TAP	49	336	0
TAP	49	336	2
TAP	50	0	3
TAP	50	48	5
TAP	50	48	7
TAP	50	96	1
TAP	50	120	0
TAP	50	144	2
STR	50	192	0
SI_	50	192	0	96	48	4
TAP	50	288	0
STR	50	288	6
SI_	50	288	6	96	48	2
TAP	51	0	6
TAP	51	48	1
TAP	51	72	0
TAP	51	96	2
TAP	51	144	1
TAP	51	144	6
TAP	51	192	4
TAP	51	240	0
TAP	51	240	2
TAP	51	288	3
TAP	51	336	5
TAP	51	336	7
TAP	52	0	4
TAP	52	48	0
TAP	52	48	2
TAP	52	96	5
TAP	52	120	4
TAP	52	144	6
TAP	52	168	3
STR	52	192	7
SI_	52	192	7	96	48	3
STR	52	288	1
SI_	52	288	1	96	48	5
TAP	52	288	7
TAP	53	0	1
TAP	53	48	6
TAP	53	72	7
TAP	53	96	5
TAP	53	144	1
TAP	53	144	6
TAP	53	192	3
TAP	53	192	4
TAP	53	240	0
TAP	53	240	2
TAP	53	288	3
TAP	53	288	4
TAP	53	336	5
TAP	53	336	7
TAP	54	0	3
TAP	54	0	4
TAP	54	48	0
TAP	54	48	2
TAP	54	96	6
TAP	54	120	0
TAP	54	144	5
STR	54	192	7
SI_	54	192	7	96	48	4
TAP	54	288	3
STR	54	288	7
SI_	54	288	7	96	48	3
TAP	55	0	2
TAP	55	0	7
TAP	55	48	0
TAP	55	72	7
TAP	55	96	1
TAP	55	144	2
TAP	55	144	7
TAP	55	192	3
TAP	55	192	4
TAP	55	240	5
TAP	55	240	7
TAP	55	288	3
TAP	55	288	4
TAP	55	336	0
TAP	55	336	2
TAP	56	0	3
TAP	56	0	4
TAP	56	48	5
TAP	56	48	7
TAP	56	96	2
TAP	56	120	3
TAP	56	144	1
TAP	56	168	4
STR	56	192	0
SI_	56	192	0	96	48	3
STR	56	288	0
SI_	56	288	0	96	48	4
TAP	56	288	4
BRK	57	0	0
BRK	57	0	5
BRK	57	96	2
BRK	57	96	7
TAP	57	192	2
TAP	57	192	3
TAP	57	240	0
TAP	57	240	5
TAP	57	288	4
TAP	57	288	5
TAP	57	336	2
TAP	57	336	7
TAP	58	0	2
TAP	58	0	3
TAP	58	48	0
TAP	58	48	5
TAP	58	96	3
TAP	58	120	7
TAP	58	144	1
TAP	58	168	5
STR	58	192	0
SI_	58	192	0	96	48	5
STR	58	288	0
SI_	58	288	0	96	48	3
TAP	58	288	2
TAP	59	0	0
TAP	59	0	6
TAP	59	48	6
TAP	59	72	5
TAP	59	96	7
TAP	59	144	0
TAP	59	144	2
TAP	59	192	4
TAP	59	192	5
TAP	59	240	2
TAP	59	240	7
TAP	59	288	2
TAP	59	288	3
TAP	59	336	0
TAP	59	336	5
TAP	60	0	4
TAP	60	0	5
TAP	60	48	2
TAP	60	48	7
TAP	60	96	4
TAP	60	120	0
TAP	60	144	6
TAP	60	168	2
STR	60	192	7
SI_	60	192	7	96	48	2
TAP	60	288	5
STR	60	288	7
SI_	60	288	7	96	48	4
TAP	61	0	1
TAP	61	0	7
TAP	61	48	1
TAP	61	72	2
TAP	61	96	0
TAP	61	144	5
TAP	61	144	7
STR	61	192	0
SI_	61	192	0	96	48	3
TAP	61	192	3
TAP	61	240	4
TAP	61	288	0
TAP	61	288	5
TAP	61	336	6
TAP	62	0	4
STR	62	0	7
SI_	62	0	7	96	48	4
TAP	62	48	3
TAP	62	96	2
TAP	62	96	7
TAP	62	144	1
TAP	62	192	0
STR	62	192	3
SI_	62	192	3	96	48	6
TAP	62	240	1
TAP	62	288	2
TAP	62	288	3
TAP	62	336	3
STR	63	0	4
SI_	63	0	4	96	48	1
TAP	63	0	7
TAP	63	48	6
TAP	63	96	4
TAP	63	96	5
TAP	63	144	4
STR	63	192	0
SI_	63	192	0	96	48	5
TAP	63	240	0
TAP	63	288	0
STR	63	288	7
SI_	63	288	7	96	48	2
TAP	63	336	7
STR	64	0	1
SI_	64	0	1	96	48	4
TAP	64	0	7
TAP	64	48	1
TAP	64	96	1
STR	64	96	6
SI_	64	96	6	96	48	3
TAP	64	144	6
TAP	64	192	6
TAP	64	240	1
TAP	64	264	0
TAP	64	288	2
TAP	64	312	7
TAP	64	336	3
TAP	64	360	6
TAP	65	0	4
TAP	65	24	5
TAP	65	48	7
TAP	65	72	6
STR	65	96	0
SI_	65	96	0	96	48	3
BRK	65	192	0
BRK	65	192	3
TAP	65	240	6
TAP	65	264	7
TAP	65	288	5
TAP	65	312	0
TAP	65	336	4
TAP	65	360	1
TAP	66	0	3
TAP	66	24	2
TAP	66	48	0
TAP	66	72	1
STR	66	96	7
SV_	66	96	7	96	48	4
STR	66	192	4
SCL	66	192	4	96	480	4
BRK	66	192	7

T_REC_TAP	494
T_REC_BRK	18
T_REC_XTP	0
T_REC_HLD	38
T_REC_XHO	0
T_REC_STR	43
T_REC_BST	0
T_REC_XST	0
T_REC_TTP	0
T_REC_THO	0
T_REC_SLD	43
T_REC_ALL	636
T_NUM_TAP	537
T_NUM_BRK	18
T_NUM_HLD	38
T_NUM_SLD	43
T_NUM_ALL	636
T_JUDGE_TAP	555
T_JUDGE_HLD	92
T_JUDGE_SLD	43
T_JUDGE_ALL	690
TTM_EACHPAIRS	115
TTM_SCR_TAP	268500
TTM_SCR_BRK	46800
TTM_SCR_HLD	38000
TTM_SCR_SLD	64500
TTM_SCR_ALL	417800
TTM_SCR_S	403550
TTM_SCR_SS	416000
TTM_RAT_ACV	10043

