VERSION	0.00.00	1.03.00
FES_MODE	0
BPM_DEF	135.000	135.000	135.000	135.000
MET_DEF	4	4
RESOLUTION	384
CLK_DEF	384
COMPATIBLE_CODE	MA2

BPM	0	0	135.000
MET	0	0	4	4

STR	1	0	0
SSL	1	0	0	96	480	4
STR	3	0	6
SSL	3	0	6	96	480	2
TAP	5	0	0
TAP	5	0	7
TAP	5	96	0
TAP	5	96	1
TAP	5	192	1
TAP	5	192	2
TAP	5	288	2
TAP	5	288	3
TAP	6	0	3
TAP	6	0	4
TAP	6	96	4
TAP	6	96	5
TAP	6	192	5
TAP	6	192	6
TAP	6	288	6
TAP	6	288	7
TAP	7	0	0
TAP	7	0	7
TAP	7	96	6
TAP	7	96	7
TAP	7	192	5
TAP	7	192	6
TAP	7	288	4
TAP	7	288	5
TAP	8	0	3
TAP	8	0	4
TAP	8	96	2
TAP	8	96	3
TAP	8	192	1
TAP	8	192	2
TAP	8	288	0
TAP	8	288	1
HLD	9	0	0	672
BRK	9	0	7
TAP	9	96	1
TAP	9	192	2
TAP	9	288	3
TAP	10	0	4
TAP	10	96	5
TAP	10	192	6
TAP	10	288	7
BRK	11	0	0
HLD	11	0	7	576
TAP	11	96	6
TAP	11	192	5
TAP	11	288	4
HLD	12	0	3	192
BRK	12	288	1
BRK	12	288	6
TAP	13	0	0
STR	13	0	1
SCR	13	0	1	96	192	4
TAP	13	96	7
TAP	13	192	6
TAP	13	288	5
TAP	14	0	4
STR	14	0	5
SCR	14	0	5	96	192	0
TAP	14	96	3
TAP	14	192	2
TAP	14	288	1
HLD	15	0	1	96
TAP	15	96	0
TAP	15	192	2
TAP	15	240	3
TAP	15	288	2
TAP	15	288	4
HLD	16	0	6	96
TAP	16	96	7
TAP	16	192	5
TAP	16	240	4
TAP	16	288	3
TAP	16	288	5
STR	17	0	6
SCL	17	0	6	96	192	3
TAP	17	0	7
TAP	17	96	0
TAP	17	192	1
TAP	17	288	2
STR	18	0	2
SCL	18	0	2	96	192	7
TAP	18	0	3
TAP	18	96	4
TAP	18	192	5
TAP	18	288	6
HLD	19	0	6	96
TAP	19	96	7
TAP	19	192	5
TAP	19	240	4
TAP	19	288	3
TAP	19	288	5
HLD	20	0	1	96
TAP	20	96	0
TAP	20	192	2
TAP	20	240	3
TAP	20	288	2
TAP	20	288	4
STR	21	0	1
SCR	21	0	1	96	192	4
TAP	21	0	5
TAP	21	96	6
TAP	21	192	7
TAP	21	288	0
TAP	22	0	1
STR	22	0	5
SCR	22	0	5	96	192	0
TAP	22	96	2
TAP	22	192	3
TAP	22	288	4
TAP	23	0	0
TAP	23	0	5
TAP	23	96	2
TAP	23	96	7
TAP	23	192	3
TAP	23	240	4
TAP	23	288	3
TAP	23	288	5
TAP	24	0	2
TAP	24	0	7
TAP	24	96	0
TAP	24	96	5
TAP	24	192	4
TAP	24	240	3
TAP	24	288	2
TAP	24	288	4
TAP	25	0	2
STR	25	0	6
SCL	25	0	6	96	192	3
TAP	25	96	1
TAP	25	192	0
TAP	25	288	7
STR	26	0	2
SCL	26	0	2	96	192	7
TAP	26	0	6
TAP	26	96	5
TAP	26	192	4
TAP	26	288	3
TAP	27	0	2
TAP	27	0	7
TAP	27	96	0
TAP	27	96	5
TAP	27	192	4
TAP	27	240	3
TAP	27	288	2
TAP	27	288	4
TAP	28	0	0
TAP	28	0	5
TAP	28	96	2
TAP	28	96	7
TAP	28	192	3
TAP	28	240	4
TAP	28	288	3
TAP	28	288	5
STR	29	0	6
SI_	29	0	6	96	48	2
TAP	29	144	0
STR	29	192	0
SI_	29	192	0	96	48	4
HLD	30	0	7	96
HLD	30	96	5	96
TAP	30	192	4
TAP	30	288	3
TAP	30	288	5
STR	31	0	1
SI_	31	0	1	96	48	5
TAP	31	144	7
STR	31	192	7
SI_	31	192	7	96	48	3
HLD	32	0	0	96
HLD	32	96	2	96
TAP	32	192	3
TAP	32	288	2
TAP	32	288	4
STR	33	0	6
SV_	33	0	6	96	72	4
TAP	33	144	0
STR	33	192	0
SV_	33	192	0	96	72	2
HLD	34	0	7	96
HLD	34	96	5	96
TAP	34	192	4
TAP	34	288	3
TAP	34	288	5
STR	35	0	1
SV_	35	0	1	96	72	3
TAP	35	144	7
STR	35	192	7
SV_	35	192	7	96	72	5
HLD	36	0	0	96
HLD	36	96	2	96
TAP	36	192	3
TAP	36	288	2
TAP	36	288	4
STR	37	0	0
SCR	37	0	0	96	1344	7
BRK	37	0	7
HLD	41	0	1	96
TAP	41	96	2
HLD	41	192	2	96
HLD	42	0	2	96
TAP	42	96	3
HLD	42	192	3	96
HLD	43	0	3	96
TAP	43	96	4
HLD	43	192	4	96
HLD	44	0	4	96
TAP	44	96	5
HLD	44	192	5	96
HLD	45	0	5	96
TAP	45	96	6
HLD	45	192	6	96
TAP	45	288	7
HLD	46	0	7	96
TAP	46	96	0
HLD	46	192	0	96
TAP	46	288	1
TAP	47	0	1
TAP	47	48	1
TAP	47	96	2
TAP	47	144	2
TAP	47	192	3
TAP	47	240	3
TAP	47	288	4
TAP	47	336	4
TAP	48	0	5
TAP	48	48	6
TAP	48	96	7
TAP	48	144	0
TAP	48	192	1
TAP	48	240	2
TAP	48	288	3
TAP	48	336	4
BRK	49	0	2
BRK	49	0	5
TAP	49	192	0
TAP	49	240	7
TAP	49	288	6
TAP	49	336	5
TAP	50	0	4
TAP	50	48	3
TAP	50	96	2
TAP	50	96	4
TAP	50	192	7
TAP	50	240	0
TAP	50	288	1
TAP	50	336	2
TAP	51	0	3
TAP	51	48	4
TAP	51	96	3
TAP	51	96	5
TAP	51	192	4
TAP	51	240	3
TAP	51	288	2
TAP	51	336	1
TAP	52	0	0
TAP	52	48	7
TAP	52	96	0
TAP	52	96	6
TAP	52	192	3
TAP	52	192	6
TAP	52	288	1
TAP	52	288	4
TAP	53	0	6
TAP	53	0	7
TAP	53	48	0
TAP	53	48	5
TAP	53	96	1
TAP	53	96	4
TAP	53	192	1
TAP	53	240	3
TAP	53	288	4
TAP	53	336	6
TAP	54	0	4
TAP	54	48	3
TAP	54	96	2
TAP	54	96	4
TAP	54	192	6
TAP	54	240	4
TAP	54	288	3
TAP	54	336	1
TAP	55	0	3
TAP	55	48	4
TAP	55	96	3
TAP	55	96	5
TAP	55	192	2
TAP	55	240	0
TAP	55	288	7
TAP	55	336	5
TAP	56	0	7
TAP	56	48	0
TAP	56	96	1
TAP	56	96	7
TAP	56	192	1
TAP	56	192	4
TAP	56	288	3
TAP	56	288	6
TAP	57	0	0
TAP	57	0	1
TAP	57	48	2
TAP	57	48	7
TAP	57	96	3
TAP	57	96	6
STR	57	192	1
SI_	57	192	1	96	48	5
STR	57	288	7
SI_	57	288	7	96	48	3
TAP	58	0	0
TAP	58	48	0
TAP	58	96	1
TAP	58	96	7
STR	58	192	6
SI_	58	192	6	96	48	2
STR	58	288	0
SI_	58	288	0	96	48	4
TAP	59	0	7
TAP	59	48	7
TAP	59	96	0
TAP	59	96	6
STR	59	192	0
SI_	59	192	0	96	48	4
STR	59	288	6
SI_	59	288	6	96	48	2
TAP	60	0	0
TAP	60	48	0
TAP	60	96	1
TAP	60	96	7
TAP	60	192	0
TAP	60	192	2
TAP	60	288	5
TAP	60	288	7
TAP	61	0	0
TAP	61	0	7
TAP	61	48	1
TAP	61	48	6
TAP	61	96	2
TAP	61	96	5
STR	61	192	1
SI_	61	192	1	96	48	4
STR	61	288	5
SI_	61	288	5	96	48	0
TAP	62	0	3
TAP	62	48	3
TAP	62	96	2
TAP	62	96	4
STR	62	192	6
SI_	62	192	6	96	48	3
STR	62	288	2
SI_	62	288	2	96	48	7
TAP	63	0	4
TAP	63	48	4
TAP	63	96	3
TAP	63	96	5
STR	63	192	0
SV_	63	192	0	96	48	2
STR	63	288	4
SV_	63	288	4	96	48	6
TAP	64	0	0
TAP	64	48	0
TAP	64	96	1
TAP	64	96	7
STR	64	192	1
SI_	64	192	1	96	48	5
STR	64	288	7
SI_	64	288	7	96	48	3
STR	65	0	0
SI_	65	0	0	96	48	4
TAP	65	96	6
STR	65	192	6
SI_	65	192	6	96	48	2
STR	65	288	0
SI_	65	288	0	96	48	4
STR	66	0	7
SI_	66	0	7	96	48	3
TAP	66	96	1
BRK	66	192	0

T_REC_TAP	270
T_REC_BRK	8
T_REC_XTP	0
T_REC_HLD	27
T_REC_XHO	0
T_REC_STR	37
T_REC_BST	0
T_REC_XST	0
T_REC_TTP	0
T_REC_THO	0
T_REC_SLD	37
T_REC_ALL	379
T_NUM_TAP	307
T_NUM_BRK	8
T_NUM_HLD	27
T_NUM_SLD	37
T_NUM_ALL	379
T_JUDGE_TAP	315
T_JUDGE_HLD	78
T_JUDGE_SLD	37
T_JUDGE_ALL	430
TTM_EACHPAIRS	76
TTM_SCR_TAP	153500
TTM_SCR_BRK	20800
TTM_SCR_HLD	27000
TTM_SCR_SLD	55500
TTM_SCR_ALL	256800
TTM_SCR_S	248350
TTM_SCR_SS	256000
TTM_RAT_ACV	10031

