VERSION	0.00.00	1.03.00
FES_MODE	0
BPM_DEF	135.000	135.000	135.000	135.000
MET_DEF	4	4
RESOLUTION	384
CLK_DEF	384
COMPATIBLE_CODE	MA2

BPM	0	0	135.000
MET	0	0	4	4

HLD	1	0	4	1440
HLD	3	0	3	672
TAP	5	0	3
TAP	5	96	2
TAP	5	192	1
TAP	5	288	0
TAP	6	0	7
TAP	6	96	6
TAP	6	192	5
TAP	6	288	4
TAP	7	0	4
TAP	7	96	5
TAP	7	192	6
TAP	7	288	7
TAP	8	0	0
TAP	8	96	1
TAP	8	192	2
TAP	8	288	3
STR	9	0	4
SCR	9	0	4	96	144	7
STR	10	0	0
SCR	10	0	0	96	144	3
STR	11	0	4
SCR	11	0	4	96	144	7
BRK	12	0	0
TAP	13	0	2
TAP	13	96	2
TAP	13	192	3
TAP	13	288	3
TAP	14	0	4
TAP	14	96	4
TAP	14	192	5
TAP	14	288	5
STR	15	0	6
SI_	15	0	6	96	144	3
STR	16	0	1
SI_	16	0	1	96	144	4
TAP	17	0	5
TAP	17	96	5
TAP	17	192	4
TAP	17	288	4
TAP	18	0	3
TAP	18	96	3
TAP	18	192	2
TAP	18	288	2
STR	19	0	1
SI_	19	0	1	96	144	4
STR	20	0	6
SI_	20	0	6	96	144	3
TAP	21	0	1
TAP	21	96	1
TAP	21	192	0
TAP	21	288	0
TAP	22	0	7
TAP	22	96	7
TAP	22	192	6
TAP	22	288	6
STR	23	0	5
SI_	23	0	5	96	144	0
STR	24	0	2
SI_	24	0	2	96	144	7
TAP	25	0	6
TAP	25	96	6
TAP	25	192	7
TAP	25	288	7
TAP	26	0	0
TAP	26	96	0
TAP	26	192	1
TAP	26	288	1
STR	27	0	2
SI_	27	0	2	96	144	7
STR	28	0	5
SI_	28	0	5	96	144	0
HLD	29	0	2	144
HLD	29	0	3	144
TAP	29	192	1
TAP	29	192	4
HLD	30	0	4	144
HLD	30	0	5	144
TAP	30	192	3
TAP	30	192	6
HLD	31	0	0	144
HLD	31	0	1	144
TAP	31	192	2
TAP	31	192	7
HLD	32	0	6	144
HLD	32	0	7	144
TAP	32	192	0
TAP	32	192	5
HLD	33	0	2	144
TAP	33	144	3
TAP	33	192	3
HLD	34	0	5	144
TAP	34	144	4
TAP	34	192	4
HLD	35	0	1	144
TAP	35	144	0
TAP	35	192	0
HLD	36	0	6	144
TAP	36	144	7
TAP	36	192	7
BRK	37	0	1
BRK	37	0	6
TAP	39	0	3
TAP	39	96	3
TAP	39	192	4
TAP	39	288	4
TAP	40	0	3
TAP	40	96	3
TAP	40	192	4
TAP	40	288	4
TAP	41	0	0
TAP	41	96	1
TAP	41	192	2
TAP	41	288	2
TAP	41	288	3
TAP	42	0	7
TAP	42	96	6
TAP	42	192	5
TAP	42	288	4
TAP	42	288	5
TAP	43	0	0
TAP	43	96	1
TAP	43	192	2
TAP	43	288	2
TAP	43	288	3
TAP	44	0	7
TAP	44	96	6
TAP	44	192	5
TAP	44	288	4
TAP	44	288	5
TAP	45	0	3
TAP	45	96	2
TAP	45	192	1
TAP	45	288	0
TAP	45	288	1
TAP	46	0	4
TAP	46	96	5
TAP	46	192	6
TAP	46	288	6
TAP	46	288	7
TAP	47	0	3
TAP	47	96	2
TAP	47	192	1
TAP	47	288	0
TAP	47	288	1
TAP	48	0	4
TAP	48	96	5
TAP	48	192	6
TAP	48	288	6
TAP	48	288	7
BRK	49	0	0
BRK	49	0	5
TAP	49	192	0
TAP	49	192	1
TAP	49	288	2
TAP	49	288	3
TAP	50	0	5
TAP	50	48	5
TAP	50	96	4
STR	50	192	2
SCR	50	192	2	96	144	5
TAP	51	192	6
TAP	51	192	7
TAP	51	288	4
TAP	51	288	5
TAP	52	0	2
TAP	52	48	2
TAP	52	96	3
STR	52	192	5
SCL	52	192	5	96	144	2
TAP	53	192	0
TAP	53	192	1
TAP	53	288	2
TAP	53	288	3
TAP	54	0	5
TAP	54	48	5
TAP	54	96	4
STR	54	192	2
SCL	54	192	2	96	144	7
TAP	55	192	6
TAP	55	192	7
TAP	55	288	4
TAP	55	288	5
TAP	56	0	2
TAP	56	48	2
TAP	56	96	3
STR	56	192	5
SCR	56	192	5	96	144	0
TAP	57	192	0
TAP	57	240	0
TAP	57	288	1
TAP	57	336	1
TAP	58	0	2
TAP	58	48	2
TAP	58	96	2
TAP	58	96	3
HLD	58	192	5	192
TAP	59	0	4
TAP	59	96	3
TAP	59	96	6
TAP	59	192	7
TAP	59	240	7
TAP	59	288	6
TAP	59	336	6
TAP	60	0	5
TAP	60	48	5
TAP	60	96	4
TAP	60	96	5
HLD	60	192	2	192
TAP	61	0	3
TAP	61	96	1
TAP	61	96	4
TAP	61	192	1
TAP	61	240	1
TAP	61	288	2
TAP	61	336	2
TAP	62	0	3
TAP	62	48	3
TAP	62	96	4
TAP	62	96	5
HLD	62	192	6	192
TAP	63	0	7
TAP	63	96	0
TAP	63	96	5
TAP	63	192	6
TAP	63	240	6
TAP	63	288	5
TAP	63	336	5
TAP	64	0	4
TAP	64	48	4
TAP	64	96	2
TAP	64	96	3
HLD	64	192	1	192
TAP	65	0	0
TAP	65	96	2
TAP	65	96	7
TAP	65	192	6
TAP	65	192	7
TAP	65	288	4
TAP	65	288	5
TAP	66	0	2
TAP	66	0	3
STR	66	96	0
SI_	66	96	0	96	288	5
STR	66	96	1
SI_	66	96	1	96	288	4

T_REC_TAP	190
T_REC_BRK	5
T_REC_XTP	0
T_REC_HLD	18
T_REC_XHO	0
T_REC_STR	17
T_REC_BST	0
T_REC_XST	0
T_REC_TTP	0
T_REC_THO	0
T_REC_SLD	17
T_REC_ALL	247
T_NUM_TAP	207
T_NUM_BRK	5
T_NUM_HLD	18
T_NUM_SLD	17
T_NUM_ALL	247
T_JUDGE_TAP	212
T_JUDGE_HLD	96
T_JUDGE_SLD	17
T_JUDGE_ALL	325
TTM_EACHPAIRS	38
TTM_SCR_TAP	103500
TTM_SCR_BRK	13000
TTM_SCR_HLD	18000
TTM_SCR_SLD	25500
TTM_SCR_ALL	160000
TTM_SCR_S	154750
TTM_SCR_SS	159500
TTM_RAT_ACV	10031

