VERSION	0.00.00	1.03.00
FES_MODE	0
BPM_DEF	135.000	135.000	135.000	135.000
MET_DEF	4	4
RESOLUTION	384
CLK_DEF	384
COMPATIBLE_CODE	MA2

BPM	0	0	135.000
MET	0	0	4	4

TAP	1	0	0
TAP	3	0	0
TAP	5	0	0
TAP	5	192	0
HLD	6	0	0	192
TAP	7	0	1
TAP	7	192	1
HLD	8	0	1	192
TAP	9	0	2
TAP	9	192	2
HLD	10	0	2	192
TAP	11	0	3
TAP	11	192	3
HLD	12	0	3	192
TAP	13	0	4
TAP	13	192	4
TAP	14	0	5
TAP	14	192	5
HLD	15	0	6	192
HLD	16	0	6	192
TAP	17	0	7
TAP	17	192	7
TAP	18	0	0
TAP	18	192	0
HLD	19	0	1	192
HLD	20	0	1	192
TAP	21	0	0
TAP	21	192	7
TAP	22	0	6
TAP	22	192	5
HLD	23	0	4	192
HLD	24	0	4	192
TAP	25	0	3
TAP	25	192	2
TAP	26	0	1
TAP	26	192	0
HLD	27	0	7	192
HLD	28	0	7	192
TAP	29	0	6
TAP	29	0	7
TAP	29	192	6
TAP	29	192	7
TAP	30	0	6
TAP	30	0	7
TAP	31	0	4
TAP	31	0	5
TAP	31	192	4
TAP	31	192	5
TAP	32	0	4
TAP	32	0	5
TAP	33	0	2
TAP	33	0	3
TAP	33	192	2
TAP	33	192	3
TAP	34	0	2
TAP	34	0	3
TAP	35	0	0
TAP	35	0	1
TAP	35	192	0
TAP	35	192	1
TAP	36	0	0
TAP	36	0	1
BRK	37	0	0
BRK	37	0	7
HLD	41	0	1	192
TAP	42	0	1
TAP	42	192	1
HLD	43	0	2	192
TAP	44	0	2
TAP	44	192	2
TAP	45	0	3
TAP	45	192	3
TAP	46	0	4
TAP	46	192	4
TAP	47	0	5
TAP	47	192	5
TAP	48	0	6
TAP	48	192	6
BRK	49	0	7
TAP	49	192	6
TAP	49	288	6
TAP	50	0	6
TAP	50	192	5
TAP	50	288	5
TAP	51	0	5
TAP	51	192	4
TAP	51	288	4
TAP	52	0	4
TAP	52	192	3
TAP	52	192	4
TAP	53	0	3
TAP	53	0	4
TAP	53	192	2
TAP	53	288	2
TAP	54	0	2
TAP	54	192	1
TAP	54	288	1
TAP	55	0	1
TAP	55	192	0
TAP	55	288	0
TAP	56	0	0
TAP	56	192	0
TAP	56	192	7
BRK	57	0	0
BRK	57	0	7
TAP	57	192	0
TAP	57	288	0
TAP	58	0	1
TAP	58	192	1
TAP	58	288	1
TAP	59	0	2
TAP	59	192	2
TAP	59	288	2
TAP	60	0	3
TAP	60	192	3
TAP	60	192	4
TAP	61	0	3
TAP	61	0	4
TAP	61	192	4
TAP	61	288	4
TAP	62	0	5
TAP	62	192	5
TAP	62	288	5
TAP	63	0	6
TAP	63	192	6
TAP	63	288	6
TAP	64	0	7
TAP	64	192	0
TAP	64	288	0
TAP	65	0	0
TAP	65	0	7
TAP	65	192	7
TAP	65	288	7
TAP	66	0	0
TAP	66	0	7
STR	66	192	0
SI_	66	192	0	96	288	4

T_REC_TAP	116
T_REC_BRK	5
T_REC_XTP	0
T_REC_HLD	14
T_REC_XHO	0
T_REC_STR	1
T_REC_BST	0
T_REC_XST	0
T_REC_TTP	0
T_REC_THO	0
T_REC_SLD	1
T_REC_ALL	137
T_NUM_TAP	117
T_NUM_BRK	5
T_NUM_HLD	14
T_NUM_SLD	1
T_NUM_ALL	137
T_JUDGE_TAP	122
T_JUDGE_HLD	56
T_JUDGE_SLD	1
T_JUDGE_ALL	179
TTM_EACHPAIRS	21
TTM_SCR_TAP	58500
TTM_SCR_BRK	13000
TTM_SCR_HLD	14000
TTM_SCR_SLD	1500
TTM_SCR_ALL	87000
TTM_SCR_S	83950
TTM_SCR_SS	86500
TTM_RAT_ACV	10057

