VERSION	0.00.00	1.03.00
FES_MODE	0
BPM_DEF	175.000	175.000	175.000	175.000
MET_DEF	4	4
RESOLUTION	384
CLK_DEF	384
COMPATIBLE_CODE	MA2

BPM	0	0	175.000
MET	0	0	4	4

STR	1	0	0
SCR	1	0	0	96	192	4
HLD	1	0	7	288
HLD	2	0	0	288
STR	2	0	7
SCL	2	0	7	96	192	3
HLD	3	0	0	288
STR	3	0	1
SCR	3	0	1	96	192	5
STR	4	0	6
SCL	4	0	6	96	192	2
HLD	4	0	7	288
STR	5	0	0
SCR	5	0	0	96	192	6
HLD	5	0	4	288
HLD	6	0	3	288
STR	6	0	7
SCL	6	0	7	96	192	1
HLD	7	0	0	96
TAP	7	0	7
TAP	7	96	1
TAP	7	192	0
HLD	7	192	7	96
TAP	7	288	6
TAP	7	336	0
TAP	7	336	5
TAP	8	48	2
TAP	8	48	7
TAP	8	144	3
TAP	8	144	4
STR	8	192	3
SI_	8	192	3	96	48	0
STR	8	192	4
SI_	8	192	4	96	48	7
HLD	9	0	1	96
HLD	9	96	3	96
HLD	9	192	4	96
TAP	9	240	7
TAP	9	288	7
HLD	10	0	6	96
HLD	10	96	4	96
HLD	10	192	3	96
TAP	10	240	0
TAP	10	288	0
HLD	11	0	1	96
HLD	11	96	3	96
HLD	11	192	4	96
TAP	11	240	7
TAP	11	288	7
BRK	12	0	0
BRK	12	96	0
BRK	12	192	0
BRK	12	288	0
STR	13	0	0
SCL	13	0	0	96	48	5
STR	13	144	2
SCL	13	144	2	96	48	7
TAP	13	192	2
STR	13	336	4
SCL	13	336	4	96	48	1
TAP	14	0	4
STR	14	144	6
SCL	14	144	6	96	48	3
TAP	14	192	6
STR	14	336	0
SCR	14	336	0	96	240	7
HLD	15	0	0	288
TAP	16	0	1
TAP	16	48	7
TAP	16	144	1
TAP	16	144	5
TAP	16	192	3
TAP	16	240	4
TAP	16	288	2
TAP	16	288	5
STR	17	0	6
SCR	17	0	6	96	48	1
STR	17	144	4
SCR	17	144	4	96	48	7
TAP	17	192	4
STR	17	336	2
SCR	17	336	2	96	48	5
TAP	18	0	2
HLD	18	144	1	96
HLD	18	240	0	96
STR	18	336	7
SCL	18	336	7	96	240	0
HLD	19	0	7	288
TAP	20	0	0
TAP	20	0	7
TAP	20	96	3
TAP	20	144	4
TAP	20	240	0
TAP	20	240	7
BRK	20	336	1
BRK	20	336	6
STR	21	0	1
SI_	21	0	1	96	48	4
TAP	21	48	0
TAP	21	96	1
STR	21	192	6
SI_	21	192	6	96	48	3
TAP	21	240	7
TAP	21	288	6
HLD	21	336	0	96
HLD	22	48	2	96
HLD	22	144	4	96
HLD	22	240	6	96
TAP	22	336	7
STR	23	0	6
SI_	23	0	6	96	48	2
TAP	23	48	7
TAP	23	96	6
STR	23	192	1
SI_	23	192	1	96	48	5
TAP	23	240	0
TAP	23	288	1
HLD	23	336	7	96
HLD	24	48	5	96
HLD	24	144	3	96
HLD	24	240	1	96
TAP	24	336	0
STR	25	0	1
SV_	25	0	1	96	48	4
TAP	25	48	0
TAP	25	96	1
STR	25	192	6
SV_	25	192	6	96	48	3
TAP	25	240	7
TAP	25	288	6
HLD	25	336	0	96
HLD	26	48	2	96
TAP	26	144	3
TAP	26	192	4
TAP	26	240	2
TAP	26	288	5
TAP	26	336	3
TAP	27	0	2
TAP	27	0	4
TAP	27	96	3
TAP	27	96	6
TAP	27	144	5
TAP	27	168	4
TAP	27	192	5
TAP	27	288	1
TAP	27	288	4
TAP	27	336	2
TAP	27	360	3
TAP	28	0	2
TAP	28	96	1
TAP	28	96	6
TAP	28	144	0
TAP	28	168	7
STR	28	192	0
SI_	28	192	0	96	48	4
BRK	28	288	0
BRK	28	288	7
TAP	29	0	1
TAP	29	48	0
TAP	29	96	2
TAP	29	144	7
STR	29	192	3
SI_	29	192	3	96	48	7
TAP	29	240	3
TAP	29	288	6
HLD	29	336	6	96
TAP	30	48	7
TAP	30	96	5
TAP	30	144	0
STR	30	192	6
SI_	30	192	6	96	48	3
TAP	30	264	2
HLD	30	336	2	96
TAP	31	48	3
STR	31	96	3
SCR	31	96	3	96	48	6
TAP	31	144	2
TAP	31	192	1
TAP	31	264	1
STR	31	336	0
SCR	31	336	0	96	48	3
TAP	31	336	7
TAP	32	48	7
TAP	32	96	6
TAP	32	144	5
STR	32	192	4
SI_	32	192	4	96	48	1
STR	32	192	5
SI_	32	192	5	96	48	0
TAP	32	264	4
TAP	32	264	5
TAP	33	0	6
TAP	33	48	7
TAP	33	96	5
TAP	33	144	0
STR	33	192	6
SCL	33	192	6	96	48	3
TAP	33	264	7
STR	33	336	7
SCR	33	336	7	96	48	2
TAP	34	48	5
TAP	34	96	6
TAP	34	144	7
STR	34	192	0
SI_	34	192	0	96	48	4
TAP	34	192	1
TAP	34	264	2
STR	34	336	2
SI_	34	336	2	96	48	7
TAP	35	48	6
TAP	35	96	5
TAP	35	144	4
TAP	35	192	2
TAP	35	192	3
TAP	35	264	1
TAP	35	264	4
TAP	35	336	6
TAP	35	336	7
TAP	36	0	2
TAP	36	0	3
TAP	36	48	0
TAP	36	48	1
TAP	36	96	4
TAP	36	96	5
TAP	36	144	0
TAP	36	144	7
STR	36	192	3
SI_	36	192	3	96	48	0
STR	36	192	4
SI_	36	192	4	96	48	7
TAP	36	240	2
TAP	36	240	5
TAP	36	288	3
TAP	36	288	4
TAP	37	0	1
TAP	37	48	0
TAP	37	96	2
TAP	37	96	7
TAP	37	192	6
TAP	37	240	7
TAP	37	288	0
TAP	37	288	5
TAP	38	0	5
TAP	38	48	4
TAP	38	96	3
TAP	38	96	6
TAP	38	192	2
TAP	38	240	3
TAP	38	288	1
TAP	38	288	4
TAP	39	0	1
TAP	39	48	0
TAP	39	96	2
TAP	39	96	7
TAP	39	192	6
TAP	39	240	7
TAP	39	288	0
TAP	39	288	5
TAP	40	0	3
TAP	40	48	4
TAP	40	96	6
TAP	40	144	4
TAP	40	192	3
TAP	40	240	1
TAP	40	288	3
TAP	40	288	4
TAP	41	0	0
TAP	41	0	6
TAP	41	48	7
TAP	41	96	0
TAP	41	96	6
TAP	41	192	1
TAP	41	192	7
TAP	41	240	0
TAP	41	288	1
TAP	41	288	7
TAP	42	0	2
TAP	42	0	4
TAP	42	48	3
TAP	42	96	2
TAP	42	96	4
TAP	42	192	3
TAP	42	192	5
TAP	42	240	4
TAP	42	288	3
TAP	42	288	5
TAP	43	0	5
TAP	43	0	7
TAP	43	48	6
TAP	43	96	5
TAP	43	96	7
TAP	43	192	0
TAP	43	192	2
TAP	43	240	1
TAP	43	288	0
TAP	43	288	2
STR	44	0	0
SCL	44	0	0	96	48	5
STR	44	0	1
SCR	44	0	1	96	48	4
STR	44	192	6
SCL	44	192	6	96	48	3
STR	44	192	7
SCR	44	192	7	96	48	2
STR	45	0	0
SUL	45	0	0	96	288	7
STR	45	0	7
SCL	45	0	7	96	288	0
STR	47	0	3
SUR	47	0	3	96	288	4
STR	47	0	4
SCR	47	0	4	96	288	3
TAP	48	144	0
TAP	48	144	1
TAP	48	240	6
TAP	48	240	7
TAP	48	336	0
TAP	48	336	1
STR	49	0	0
SUR	49	0	0	96	192	3
STR	49	0	1
SUR	49	0	1	96	192	4
STR	50	0	6
SUL	50	0	6	96	192	3
STR	50	0	7
SUL	50	0	7	96	192	4
TAP	51	0	0
STR	51	0	1
SI_	51	0	1	96	48	4
TAP	51	96	0
STR	51	192	6
SI_	51	192	6	96	48	3
TAP	51	192	7
TAP	51	288	7
TAP	51	336	0
TAP	52	48	7
TAP	52	144	0
STR	52	192	0
SI_	52	192	0	96	48	3
STR	52	192	7
SI_	52	192	7	96	48	4
TAP	52	288	0
TAP	52	288	7
TAP	53	0	1
TAP	53	24	0
TAP	53	48	1
TAP	53	72	0
BRK	53	96	1
TAP	53	192	6
TAP	53	216	7
TAP	53	240	6
TAP	53	264	7
BRK	53	288	6
TAP	54	0	5
TAP	54	24	4
TAP	54	48	5
TAP	54	72	4
TAP	54	96	6
TAP	54	120	3
TAP	54	144	6
TAP	54	168	3
TAP	54	192	7
TAP	54	216	2
TAP	54	240	7
TAP	54	264	2
BRK	54	288	0
TAP	55	0	6
TAP	55	24	7
TAP	55	48	6
TAP	55	72	7
BRK	55	96	6
TAP	55	192	1
TAP	55	216	0
TAP	55	240	1
TAP	55	264	0
BRK	55	288	1
TAP	56	0	2
TAP	56	24	3
TAP	56	48	2
TAP	56	72	3
TAP	56	96	1
TAP	56	120	4
TAP	56	144	1
TAP	56	168	4
TAP	56	192	0
TAP	56	216	5
TAP	56	240	0
TAP	56	264	5
BRK	56	288	7
TAP	57	0	2
TAP	57	24	7
TAP	57	48	2
TAP	57	72	7
BRK	57	96	2
TAP	57	192	5
TAP	57	216	0
TAP	57	240	5
TAP	57	264	0
BRK	57	288	5
TAP	58	0	3
TAP	58	24	6
TAP	58	48	3
TAP	58	72	6
TAP	58	96	2
TAP	58	120	5
TAP	58	144	2
TAP	58	168	5
TAP	58	192	1
TAP	58	216	4
TAP	58	240	1
TAP	58	264	4
BRK	58	288	0
TAP	59	0	0
TAP	59	24	7
TAP	59	48	0
TAP	59	72	7
TAP	59	96	0
TAP	59	120	7
TAP	59	144	0
TAP	59	168	7
TAP	59	192	0
TAP	59	216	1
TAP	59	240	2
TAP	59	264	3
TAP	59	288	4
TAP	59	312	5
TAP	59	336	6
TAP	59	360	7
STR	60	0	0
SI_	60	0	0	96	48	4
STR	60	96	7
SI_	60	96	7	96	48	3
TAP	60	144	7
TAP	60	192	1
BRK	60	288	0
BRK	60	288	7
TAP	61	0	6
TAP	61	48	7
TAP	61	96	5
TAP	61	144	0
STR	61	192	4
SI_	61	192	4	96	48	0
TAP	61	240	4
TAP	61	288	1
HLD	61	336	1	96
TAP	62	48	0
TAP	62	96	2
TAP	62	144	7
STR	62	192	1
SI_	62	192	1	96	48	4
TAP	62	264	5
HLD	62	336	5	96
TAP	63	48	4
STR	63	96	4
SCL	63	96	4	96	48	1
TAP	63	144	5
TAP	63	192	6
TAP	63	264	6
TAP	63	336	0
STR	63	336	7
SCL	63	336	7	96	48	4
TAP	64	48	0
TAP	64	96	1
TAP	64	144	2
STR	64	192	2
SI_	64	192	2	96	48	7
STR	64	192	3
SI_	64	192	3	96	48	6
TAP	64	264	2
TAP	64	264	3
TAP	65	0	1
TAP	65	48	0
TAP	65	96	1
TAP	65	144	7
STR	65	192	1
SCR	65	192	1	96	48	4
TAP	65	264	0
STR	65	336	0
SCL	65	336	0	96	48	5
TAP	66	48	2
TAP	66	96	1
TAP	66	144	0
TAP	66	192	6
STR	66	192	7
SI_	66	192	7	96	48	3
TAP	66	264	5
STR	66	336	5
SI_	66	336	5	96	48	0
TAP	67	48	1
TAP	67	96	2
TAP	67	144	3
TAP	67	192	4
TAP	67	192	5
TAP	67	264	3
TAP	67	264	6
TAP	67	336	0
TAP	67	336	1
TAP	68	0	4
TAP	68	0	5
TAP	68	48	6
TAP	68	48	7
TAP	68	96	2
TAP	68	96	3
TAP	68	144	0
TAP	68	144	7
STR	68	192	3
SI_	68	192	3	96	48	0
STR	68	192	4
SI_	68	192	4	96	48	7
BRK	68	240	2
BRK	68	240	5
BRK	68	288	3
BRK	68	288	4
TAP	69	0	0
TAP	69	48	1
TAP	69	96	2
TAP	69	96	4
TAP	69	144	5
TAP	69	192	6
TAP	69	240	7
TAP	69	288	0
TAP	69	288	1
TAP	69	336	2
TAP	70	0	3
TAP	70	48	4
TAP	70	96	5
TAP	70	96	7
TAP	70	144	0
TAP	70	192	1
TAP	70	240	2
TAP	70	288	3
TAP	70	288	4
TAP	70	336	5
TAP	71	0	7
TAP	71	48	6
TAP	71	96	3
TAP	71	96	5
TAP	71	144	2
TAP	71	192	1
TAP	71	240	0
TAP	71	288	6
TAP	71	288	7
TAP	71	336	5
TAP	72	0	4
TAP	72	48	3
TAP	72	96	0
TAP	72	96	2
TAP	72	144	7
TAP	72	192	6
TAP	72	240	5
TAP	72	288	3
TAP	72	288	4
TAP	72	336	2
TAP	73	0	0
TAP	73	48	0
TAP	73	96	1
TAP	73	96	7
TAP	73	144	0
TAP	73	192	2
TAP	73	240	2
TAP	73	288	1
TAP	73	288	3
TAP	73	336	2
TAP	74	0	4
TAP	74	48	4
TAP	74	96	3
TAP	74	96	5
TAP	74	144	4
TAP	74	192	6
TAP	74	240	6
TAP	74	288	5
TAP	74	288	7
TAP	74	336	6
TAP	75	0	1
TAP	75	0	7
TAP	75	48	6
TAP	75	96	0
TAP	75	96	5
TAP	75	144	1
TAP	75	192	2
TAP	75	192	6
TAP	75	240	5
TAP	75	288	1
TAP	75	288	4
TAP	75	336	2
STR	76	0	3
SCL	76	0	3	96	48	0
STR	76	0	7
SCL	76	0	7	96	48	4
STR	76	192	3
SCR	76	192	3	96	48	6
STR	76	192	7
SCR	76	192	7	96	48	2
STR	77	0	3
SCL	77	0	3	96	672	7
STR	77	0	7
SCL	77	0	7	96	1440	7

T_REC_TAP	395
T_REC_BRK	23
T_REC_XTP	0
T_REC_HLD	35
T_REC_XHO	0
T_REC_STR	72
T_REC_BST	0
T_REC_XST	0
T_REC_TTP	0
T_REC_THO	0
T_REC_SLD	72
T_REC_ALL	597
T_NUM_TAP	467
T_NUM_BRK	23
T_NUM_HLD	35
T_NUM_SLD	72
T_NUM_ALL	597
T_JUDGE_TAP	490
T_JUDGE_HLD	102
T_JUDGE_SLD	72
T_JUDGE_ALL	664
TTM_EACHPAIRS	102
TTM_SCR_TAP	233500
TTM_SCR_BRK	59800
TTM_SCR_HLD	35000
TTM_SCR_SLD	108000
TTM_SCR_ALL	436300
TTM_SCR_S	421000
TTM_SCR_SS	434000
TTM_RAT_ACV	10052

