VERSION	0.00.00	1.03.00
FES_MODE	0
BPM_DEF	175.000	175.000	175.000	175.000
MET_DEF	4	4
RESOLUTION	384
CLK_DEF	384
COMPATIBLE_CODE	MA2

BPM	0	0	175.000
MET	0	0	4	4

HLD	1	0	5	384
TAP	1	96	4
TAP	1	288	4
HLD	2	0	2	384
TAP	2	96	3
TAP	2	288	3
HLD	3	0	6	384
TAP	3	96	7
TAP	3	288	7
HLD	4	0	1	384
TAP	4	96	0
TAP	4	288	0
STR	5	0	6
SI_	5	0	6	96	96	3
TAP	5	192	0
TAP	5	240	0
TAP	5	288	0
STR	6	0	1
SI_	6	0	1	96	96	4
TAP	6	192	7
TAP	6	240	7
TAP	6	288	7
TAP	7	0	4
TAP	7	0	6
TAP	7	192	1
TAP	7	192	3
TAP	7	336	1
TAP	7	336	6
TAP	8	48	2
TAP	8	48	5
STR	8	144	3
SI_	8	144	3	96	48	0
STR	8	144	4
SI_	8	144	4	96	48	7
TAP	8	192	3
TAP	8	192	4
TAP	9	0	6
TAP	9	96	0
TAP	9	96	6
TAP	9	192	6
TAP	9	240	7
TAP	9	288	6
TAP	10	0	1
TAP	10	96	1
TAP	10	96	7
TAP	10	192	1
TAP	10	240	0
TAP	10	288	1
TAP	11	0	4
TAP	11	96	2
TAP	11	96	4
TAP	11	192	3
TAP	11	240	5
TAP	11	288	3
TAP	12	0	4
TAP	12	0	5
TAP	12	96	6
TAP	12	96	7
TAP	12	192	0
TAP	12	192	1
TAP	12	288	2
TAP	12	288	3
HLD	13	0	4	144
TAP	13	144	3
HLD	13	192	3	144
TAP	13	336	2
HLD	14	0	2	144
TAP	14	144	1
HLD	14	192	1	144
TAP	14	336	0
STR	15	0	0
SCL	15	0	0	96	192	2
TAP	16	48	0
TAP	16	144	0
TAP	16	192	1
TAP	16	240	2
TAP	16	288	3
HLD	17	0	2	144
TAP	17	144	3
HLD	17	192	3	144
TAP	17	336	4
HLD	18	0	4	144
TAP	18	144	5
TAP	18	240	6
TAP	18	336	7
STR	19	0	7
SCR	19	0	7	96	192	5
TAP	20	0	7
TAP	20	96	0
TAP	20	144	0
TAP	20	144	7
TAP	20	240	1
TAP	20	240	6
BRK	20	336	2
BRK	20	336	5
TAP	21	96	1
TAP	21	96	6
TAP	21	192	0
TAP	21	288	1
TAP	21	288	6
TAP	22	0	4
TAP	22	96	2
TAP	22	96	5
TAP	22	192	3
TAP	22	288	2
TAP	22	288	5
TAP	23	0	1
TAP	23	96	2
TAP	23	96	7
TAP	23	192	0
TAP	23	288	2
TAP	23	288	7
TAP	24	0	6
TAP	24	96	0
TAP	24	96	5
TAP	24	192	7
TAP	24	288	0
TAP	24	288	5
HLD	25	0	1	96
TAP	25	96	0
HLD	25	192	6	96
TAP	25	288	7
HLD	26	0	1	96
TAP	26	96	2
HLD	26	192	6	96
TAP	26	288	5
BRK	27	0	0
BRK	27	0	1
TAP	27	96	4
BRK	27	192	6
BRK	27	192	7
TAP	27	288	3
BRK	28	0	0
BRK	28	0	1
BRK	28	96	6
BRK	28	96	7
STR	28	192	4
SI_	28	192	4	96	48	0
BRK	28	192	5
HLD	29	0	6	96
TAP	29	96	7
TAP	29	192	0
TAP	29	192	1
STR	29	240	0
SCL	29	240	0	96	96	5
STR	29	240	1
SCR	29	240	1	96	96	4
TAP	30	96	3
TAP	30	96	6
HLD	30	192	7	96
TAP	30	288	6
HLD	31	0	1	96
TAP	31	96	0
TAP	31	192	6
TAP	31	192	7
STR	31	240	6
SCL	31	240	6	96	96	3
STR	31	240	7
SCR	31	240	7	96	96	2
TAP	32	96	1
TAP	32	96	4
HLD	32	192	0	96
TAP	32	288	1
HLD	33	0	6	96
TAP	33	96	7
TAP	33	192	0
TAP	33	192	1
STR	33	240	0
SCL	33	240	0	96	96	5
STR	33	240	1
SCR	33	240	1	96	96	4
TAP	34	96	3
TAP	34	96	6
HLD	34	192	7	96
TAP	34	288	6
HLD	35	0	2	96
TAP	35	96	3
HLD	35	192	5	96
TAP	35	288	4
STR	36	0	2
SUL	36	0	2	96	96	5
STR	36	0	6
SCR	36	0	6	96	96	1
BRK	36	288	0
TAP	37	0	7
TAP	37	96	1
TAP	37	96	7
TAP	37	192	7
TAP	37	240	1
TAP	37	288	3
TAP	38	0	0
TAP	38	96	0
TAP	38	96	6
TAP	38	192	0
TAP	38	240	6
TAP	38	288	4
TAP	39	0	3
TAP	39	96	3
TAP	39	96	5
TAP	39	192	3
TAP	39	240	5
TAP	39	288	7
TAP	40	0	4
TAP	40	96	2
TAP	40	96	4
TAP	40	192	4
TAP	40	240	2
TAP	40	288	0
TAP	41	0	1
TAP	41	96	6
TAP	41	96	7
STR	41	192	0
SI_	41	192	0	96	48	4
TAP	41	192	1
TAP	42	0	7
TAP	42	96	0
TAP	42	96	1
TAP	42	192	6
STR	42	192	7
SI_	42	192	7	96	48	3
TAP	43	0	7
TAP	43	48	0
TAP	43	96	6
TAP	43	144	1
TAP	43	192	5
TAP	43	240	2
TAP	43	288	4
TAP	43	336	3
STR	44	0	4
SUL	44	0	4	96	96	7
STR	44	192	3
SUR	44	192	3	96	96	0
STR	45	0	4
SCR	45	0	4	96	576	3
BRK	47	0	1
BRK	47	0	6
TAP	48	144	5
TAP	48	144	7
TAP	48	240	0
TAP	48	240	2
TAP	48	336	0
TAP	48	336	7
BRK	49	0	0
BRK	49	0	7
TAP	49	96	6
TAP	49	192	5
TAP	49	288	4
TAP	50	0	3
TAP	50	96	2
TAP	50	192	1
TAP	50	288	0
STR	51	0	7
SCL	51	0	7	96	96	4
STR	51	192	0
SCR	51	192	0	96	96	3
STR	52	0	7
SI_	52	0	7	96	48	5
STR	52	96	1
SI_	52	96	1	96	48	3
STR	52	192	0
SI_	52	192	0	96	48	4
TAP	53	0	3
TAP	53	96	0
TAP	53	96	6
TAP	53	192	4
TAP	53	288	1
TAP	53	288	7
TAP	54	0	4
TAP	54	0	5
TAP	54	96	2
TAP	54	96	3
TAP	54	192	7
TAP	54	240	0
TAP	54	288	1
TAP	54	288	6
TAP	55	0	5
TAP	55	96	1
TAP	55	96	7
TAP	55	192	2
TAP	55	288	0
TAP	55	288	6
TAP	56	0	2
TAP	56	0	3
TAP	56	96	4
TAP	56	96	5
TAP	56	192	0
TAP	56	240	7
TAP	56	288	1
TAP	56	288	6
TAP	57	0	3
TAP	57	96	6
TAP	57	96	7
TAP	57	192	4
TAP	57	288	0
TAP	57	288	1
TAP	58	0	4
TAP	58	0	6
TAP	58	96	1
TAP	58	96	3
TAP	58	192	6
TAP	58	240	1
TAP	58	288	0
TAP	58	288	7
TAP	59	0	5
TAP	59	96	0
TAP	59	96	1
TAP	59	192	2
TAP	59	288	6
TAP	59	288	7
STR	60	0	3
SCL	60	0	3	96	96	0
STR	60	0	4
SCR	60	0	4	96	96	7
TAP	61	0	3
TAP	61	96	1
TAP	61	192	6
TAP	61	192	7
TAP	61	240	0
TAP	61	240	5
TAP	61	336	3
TAP	62	48	0
TAP	62	48	1
TAP	62	96	2
TAP	62	96	7
STR	62	192	0
SI_	62	192	0	96	48	6
STR	62	192	1
SI_	62	192	1	96	48	3
TAP	63	0	5
TAP	63	96	3
TAP	63	192	0
TAP	63	192	1
TAP	63	240	2
TAP	63	240	7
TAP	63	336	5
TAP	64	48	2
TAP	64	48	3
TAP	64	96	1
TAP	64	96	4
STR	64	192	2
SI_	64	192	2	96	48	0
STR	64	192	3
SI_	64	192	3	96	48	5
TAP	65	0	7
TAP	65	96	5
TAP	65	192	2
TAP	65	192	3
TAP	65	240	1
TAP	65	240	4
TAP	65	336	7
TAP	66	48	4
TAP	66	48	5
TAP	66	96	3
TAP	66	96	6
STR	66	192	4
SI_	66	192	4	96	48	2
STR	66	192	5
SI_	66	192	5	96	48	7
TAP	67	0	0
TAP	67	0	1
TAP	67	96	3
TAP	67	96	6
HLD	67	192	4	96
HLD	67	192	5	96
STR	68	0	2
SUL	68	0	2	96	96	5
STR	68	0	6
SCR	68	0	6	96	96	1
BRK	68	288	0
BRK	68	288	7
TAP	69	0	7
TAP	69	96	2
TAP	69	96	7
TAP	69	192	0
TAP	69	240	1
TAP	69	288	2
TAP	70	0	0
TAP	70	96	0
TAP	70	96	5
TAP	70	192	7
TAP	70	240	6
TAP	70	288	5
TAP	71	0	3
TAP	71	96	3
TAP	71	96	6
TAP	71	192	4
TAP	71	240	5
TAP	71	288	6
TAP	72	0	4
TAP	72	96	1
TAP	72	96	4
TAP	72	192	3
TAP	72	240	2
TAP	72	288	1
TAP	73	0	4
TAP	73	0	6
TAP	73	96	2
TAP	73	96	3
STR	73	192	4
SI_	73	192	4	96	48	0
TAP	73	192	5
TAP	74	0	1
TAP	74	0	3
TAP	74	96	4
TAP	74	96	5
TAP	74	192	2
STR	74	192	3
SI_	74	192	3	96	48	7
TAP	75	0	3
TAP	75	48	4
TAP	75	96	2
TAP	75	144	5
TAP	75	192	1
TAP	75	240	6
TAP	75	288	0
TAP	75	336	7
STR	76	0	0
SI_	76	0	0	96	48	5
STR	76	0	1
SI_	76	0	1	96	48	4
STR	76	192	6
SI_	76	192	6	96	48	3
STR	76	192	7
SI_	76	192	7	96	48	2
BRK	77	0	1
BRK	77	0	6
TAP	78	0	6
TAP	78	96	7
TAP	78	192	0
STR	78	288	1
SCL	78	288	1	96	288	6
TAP	80	0	5
TAP	80	96	4
TAP	80	192	3
STR	80	288	2
SCL	80	288	2	96	384	5

T_REC_TAP	305
T_REC_BRK	20
T_REC_XTP	0
T_REC_HLD	25
T_REC_XHO	0
T_REC_STR	43
T_REC_BST	0
T_REC_XST	0
T_REC_TTP	0
T_REC_THO	0
T_REC_SLD	43
T_REC_ALL	436
T_NUM_TAP	348
T_NUM_BRK	20
T_NUM_HLD	25
T_NUM_SLD	43
T_NUM_ALL	436
T_JUDGE_TAP	368
T_JUDGE_HLD	81
T_JUDGE_SLD	43
T_JUDGE_ALL	492
TTM_EACHPAIRS	103
TTM_SCR_TAP	174000
TTM_SCR_BRK	52000
TTM_SCR_HLD	25000
TTM_SCR_SLD	64500
TTM_SCR_ALL	315500
TTM_SCR_S	304100
TTM_SCR_SS	313500
TTM_RAT_ACV	10063

