VERSION	0.00.00	1.03.00
FES_MODE	0
BPM_DEF	175.000	175.000	175.000	175.000
MET_DEF	4	4
RESOLUTION	384
CLK_DEF	384
COMPATIBLE_CODE	MA2

BPM	0	0	175.000
MET	0	0	4	4

TAP	1	0	4
TAP	2	0	4
TAP	3	0	3
TAP	4	0	3
TAP	5	0	4
TAP	5	96	4
TAP	5	192	4
TAP	6	0	3
TAP	6	96	3
TAP	6	192	3
TAP	7	0	3
TAP	7	0	4
TAP	7	192	2
TAP	7	192	5
TAP	8	0	1
TAP	8	0	6
TAP	8	96	1
TAP	8	96	6
TAP	8	192	1
TAP	8	192	6
TAP	9	0	7
TAP	9	96	7
TAP	9	192	6
TAP	9	288	6
TAP	10	0	0
TAP	10	96	0
TAP	10	192	1
TAP	10	288	1
TAP	11	0	7
TAP	11	96	7
TAP	11	192	0
TAP	11	288	0
TAP	12	0	1
TAP	12	0	6
TAP	12	96	1
TAP	12	96	6
TAP	12	192	1
TAP	12	192	6
HLD	13	0	5	192
TAP	13	192	4
HLD	14	0	2	192
TAP	14	192	3
HLD	15	0	5	192
TAP	15	192	4
HLD	16	0	2	192
TAP	16	192	3
HLD	17	0	1	192
TAP	17	192	0
HLD	18	0	6	192
TAP	18	192	7
HLD	19	0	1	192
TAP	19	192	0
HLD	20	0	6	192
TAP	20	192	7
TAP	21	0	1
TAP	21	96	2
TAP	21	192	3
TAP	21	288	3
TAP	21	288	4
TAP	22	0	6
TAP	22	96	5
TAP	22	192	4
TAP	22	288	3
TAP	22	288	4
TAP	23	0	1
TAP	23	96	2
TAP	23	192	3
TAP	23	288	3
TAP	23	288	4
TAP	24	0	6
TAP	24	96	5
TAP	24	192	4
TAP	24	288	3
TAP	24	288	4
TAP	25	0	0
TAP	25	96	1
TAP	25	192	2
TAP	25	288	3
TAP	25	288	4
TAP	26	0	7
TAP	26	96	6
TAP	26	192	5
TAP	26	288	3
TAP	26	288	4
TAP	27	0	2
TAP	27	0	5
TAP	27	192	1
TAP	27	192	6
TAP	28	0	0
TAP	28	0	7
TAP	28	96	0
TAP	28	96	7
BRK	28	192	0
BRK	28	192	7
TAP	29	0	5
TAP	29	96	5
TAP	29	192	4
TAP	29	192	5
TAP	29	288	4
TAP	29	288	5
TAP	30	0	2
TAP	30	96	2
TAP	30	192	2
TAP	30	192	3
TAP	30	288	2
TAP	30	288	3
TAP	31	0	5
TAP	31	96	5
TAP	31	192	4
TAP	31	192	6
TAP	31	288	4
TAP	31	288	6
TAP	32	0	2
TAP	32	96	2
TAP	32	192	1
TAP	32	192	3
TAP	32	288	1
TAP	32	288	3
TAP	33	0	6
TAP	33	96	6
TAP	33	192	5
TAP	33	192	7
TAP	33	288	5
TAP	33	288	7
TAP	34	0	1
TAP	34	96	1
TAP	34	192	0
TAP	34	192	2
TAP	34	288	0
TAP	34	288	2
TAP	35	0	7
TAP	35	96	7
TAP	35	192	0
TAP	35	288	0
STR	36	0	0
SCR	36	0	0	96	144	3
STR	36	0	7
SCL	36	0	7	96	144	4
TAP	37	0	2
TAP	37	96	1
TAP	37	192	2
TAP	37	288	3
TAP	38	0	5
TAP	38	96	6
TAP	38	192	5
TAP	38	288	4
TAP	39	0	2
TAP	39	96	1
TAP	39	192	2
TAP	39	288	3
TAP	40	0	5
TAP	40	96	6
TAP	40	192	5
TAP	40	288	4
TAP	41	0	1
TAP	41	96	1
TAP	41	192	0
TAP	41	288	2
TAP	42	0	6
TAP	42	96	6
TAP	42	192	7
TAP	42	288	5
TAP	43	0	1
TAP	43	96	1
TAP	43	192	0
TAP	43	288	2
TAP	44	0	6
TAP	44	96	6
TAP	44	192	7
TAP	44	288	5
BRK	45	0	0
HLD	47	0	0	576
HLD	47	0	5	576
HLD	49	0	2	576
HLD	49	0	7	576
TAP	51	0	3
TAP	51	0	4
TAP	51	192	3
TAP	51	192	4
STR	52	0	3
SI_	52	0	3	96	144	0
STR	52	0	4
SI_	52	0	4	96	144	7
TAP	53	0	1
TAP	53	96	1
TAP	53	192	0
TAP	53	192	1
TAP	53	288	0
TAP	53	288	1
TAP	54	0	6
TAP	54	96	6
TAP	54	192	4
TAP	54	192	5
TAP	54	288	4
TAP	54	288	5
TAP	55	0	6
TAP	55	96	6
TAP	55	192	6
TAP	55	192	7
TAP	55	288	6
TAP	55	288	7
TAP	56	0	1
TAP	56	96	1
TAP	56	192	2
TAP	56	192	3
TAP	56	288	2
TAP	56	288	3
TAP	57	0	1
TAP	57	96	1
TAP	57	192	0
TAP	57	192	1
TAP	57	288	0
TAP	57	288	1
TAP	58	0	6
TAP	58	96	6
TAP	58	192	4
TAP	58	192	5
TAP	58	288	4
TAP	58	288	5
TAP	59	0	6
TAP	59	96	6
TAP	59	192	6
TAP	59	192	7
TAP	59	288	6
TAP	59	288	7
STR	60	0	0
SI_	60	0	0	96	144	5
STR	60	0	1
SI_	60	0	1	96	144	4
TAP	61	0	7
TAP	61	96	6
TAP	61	192	5
TAP	61	288	4
TAP	61	288	6
TAP	62	0	0
TAP	62	96	1
TAP	62	192	2
TAP	62	288	1
TAP	62	288	3
TAP	63	0	7
TAP	63	96	6
TAP	63	192	5
TAP	63	288	4
TAP	63	288	6
TAP	64	0	0
TAP	64	96	1
TAP	64	192	2
TAP	64	288	1
TAP	64	288	3
TAP	65	0	4
TAP	65	96	5
TAP	65	192	6
TAP	65	288	5
TAP	65	288	7
TAP	66	0	3
TAP	66	96	2
TAP	66	192	1
TAP	66	288	0
TAP	66	288	2
TAP	67	0	5
TAP	67	96	4
TAP	67	96	5
TAP	67	192	2
TAP	67	288	2
TAP	67	288	3
STR	68	0	3
SI_	68	0	3	96	144	0
STR	68	0	4
SI_	68	0	4	96	144	7
TAP	69	0	1
TAP	69	96	1
TAP	69	192	0
TAP	69	288	0
TAP	69	288	1
TAP	70	0	6
TAP	70	96	6
TAP	70	192	7
TAP	70	288	6
TAP	70	288	7
TAP	71	0	1
TAP	71	96	1
TAP	71	192	0
TAP	71	288	0
TAP	71	288	1
TAP	72	0	6
TAP	72	96	6
TAP	72	192	7
TAP	72	288	6
TAP	72	288	7
TAP	73	0	5
TAP	73	96	4
TAP	73	192	3
TAP	73	288	2
TAP	73	288	3
TAP	74	0	2
TAP	74	96	3
TAP	74	192	4
TAP	74	288	4
TAP	74	288	5
TAP	75	0	6
TAP	75	96	6
TAP	75	192	7
TAP	75	288	7
TAP	76	0	1
TAP	76	96	1
TAP	76	192	0
TAP	76	288	0
BRK	77	0	7
HLD	78	0	4	192
HLD	78	192	5	192
TAP	79	0	6
HLD	80	0	3	192
HLD	80	192	2	192
TAP	81	0	1

T_REC_TAP	278
T_REC_BRK	4
T_REC_XTP	0
T_REC_HLD	16
T_REC_XHO	0
T_REC_STR	8
T_REC_BST	0
T_REC_XST	0
T_REC_TTP	0
T_REC_THO	0
T_REC_SLD	8
T_REC_ALL	314
T_NUM_TAP	286
T_NUM_BRK	4
T_NUM_HLD	16
T_NUM_SLD	8
T_NUM_ALL	314
T_JUDGE_TAP	290
T_JUDGE_HLD	96
T_JUDGE_SLD	8
T_JUDGE_ALL	394
TTM_EACHPAIRS	67
TTM_SCR_TAP	143000
TTM_SCR_BRK	10400
TTM_SCR_HLD	16000
TTM_SCR_SLD	12000
TTM_SCR_ALL	181400
TTM_SCR_S	175600
TTM_SCR_SS	181000
TTM_RAT_ACV	10022

