VERSION	0.00.00	1.03.00
FES_MODE	0
BPM_DEF	175.000	175.000	175.000	175.000
MET_DEF	4	4
RESOLUTION	384
CLK_DEF	384
COMPATIBLE_CODE	MA2

BPM	0	0	175.000
MET	0	0	4	4

TAP	1	0	0
TAP	2	0	0
TAP	3	0	1
TAP	4	0	1
TAP	5	0	2
TAP	6	0	2
TAP	7	0	3
TAP	7	192	3
TAP	8	0	3
TAP	8	0	4
TAP	9	0	4
TAP	9	192	4
TAP	10	0	4
TAP	11	0	5
TAP	11	192	5
TAP	12	0	5
TAP	13	0	6
TAP	13	192	6
TAP	14	0	6
HLD	15	0	7	384
TAP	17	0	0
TAP	17	192	0
TAP	18	0	0
HLD	19	0	1	384
TAP	21	0	2
TAP	21	192	2
TAP	22	0	3
TAP	22	192	3
TAP	23	0	4
TAP	23	192	4
TAP	24	0	5
TAP	24	192	5
TAP	25	0	6
TAP	25	192	6
TAP	26	0	7
TAP	26	192	7
TAP	27	0	0
TAP	27	192	0
TAP	28	0	0
TAP	28	0	7
TAP	28	192	0
TAP	28	192	7
TAP	29	0	7
TAP	29	96	7
TAP	29	192	7
TAP	30	0	6
TAP	30	96	6
TAP	30	192	6
TAP	31	0	5
TAP	31	96	5
TAP	31	192	5
TAP	32	0	4
TAP	32	96	4
TAP	32	192	4
TAP	33	0	3
TAP	33	96	3
TAP	33	192	3
TAP	34	0	2
TAP	34	96	2
TAP	34	192	2
TAP	35	0	1
TAP	35	96	1
TAP	35	192	1
TAP	36	0	0
TAP	36	96	0
TAP	36	192	0
STR	37	0	0
SI_	37	0	0	96	288	4
STR	39	0	7
SI_	39	0	7	96	288	3
STR	41	0	1
SI_	41	0	1	96	288	4
STR	43	0	6
SI_	43	0	6	96	288	3
BRK	45	0	0
BRK	45	0	7
TAP	47	0	0
TAP	47	0	7
TAP	49	0	0
TAP	49	0	7
TAP	50	0	0
TAP	50	0	7
TAP	51	0	0
TAP	51	0	7
TAP	51	192	0
TAP	51	192	7
HLD	52	0	0	192
HLD	52	0	7	192
TAP	53	0	0
TAP	53	96	0
TAP	53	192	0
TAP	54	0	1
TAP	54	96	1
TAP	54	192	1
TAP	55	0	2
TAP	55	96	2
TAP	55	192	2
TAP	56	0	3
TAP	56	0	4
TAP	56	96	3
TAP	56	96	4
TAP	56	192	3
TAP	56	192	4
TAP	57	0	4
TAP	57	96	4
TAP	57	192	4
TAP	58	0	5
TAP	58	96	5
TAP	58	192	5
TAP	59	0	6
TAP	59	96	6
TAP	59	192	6
TAP	60	0	0
TAP	60	0	7
TAP	60	96	0
TAP	60	96	7
BRK	60	192	0
BRK	60	192	7
TAP	61	0	1
TAP	61	96	1
TAP	61	192	1
TAP	62	0	2
TAP	62	96	2
TAP	62	192	2
TAP	63	0	3
TAP	63	96	3
TAP	63	192	3
TAP	64	0	4
TAP	64	96	3
TAP	64	192	4
TAP	65	0	5
TAP	65	96	5
TAP	65	192	5
TAP	66	0	6
TAP	66	96	6
TAP	66	192	6
TAP	67	0	7
TAP	67	96	7
TAP	67	192	7
TAP	68	0	0
TAP	68	96	7
TAP	68	192	0
STR	69	0	0
SI_	69	0	0	96	288	4
STR	71	0	7
SI_	71	0	7	96	288	3
STR	73	0	1
SI_	73	0	1	96	288	4
STR	75	0	6
SI_	75	0	6	96	288	3
BRK	77	0	0
BRK	77	0	7

T_REC_TAP	126
T_REC_BRK	6
T_REC_XTP	0
T_REC_HLD	4
T_REC_XHO	0
T_REC_STR	8
T_REC_BST	0
T_REC_XST	0
T_REC_TTP	0
T_REC_THO	0
T_REC_SLD	8
T_REC_ALL	152
T_NUM_TAP	134
T_NUM_BRK	6
T_NUM_HLD	4
T_NUM_SLD	8
T_NUM_ALL	152
T_JUDGE_TAP	140
T_JUDGE_HLD	24
T_JUDGE_SLD	8
T_JUDGE_ALL	172
TTM_EACHPAIRS	17
TTM_SCR_TAP	67000
TTM_SCR_BRK	15600
TTM_SCR_HLD	4000
TTM_SCR_SLD	12000
TTM_SCR_ALL	98600
TTM_SCR_S	95100
TTM_SCR_SS	98000
TTM_RAT_ACV	10061

