VERSION	0.00.00	1.03.00
FES_MODE	0
BPM_DEF	170.000	170.000	170.000	170.000
MET_DEF	4	4
RESOLUTION	384
CLK_DEF	384
COMPATIBLE_CODE	MA2

BPM	0	0	170.000
MET	0	0	4	4

TAP	1	0	0
TAP	1	0	7
TAP	1	96	0
TAP	1	96	7
TAP	1	192	6
TAP	1	216	5
TAP	1	240	4
TAP	1	264	3
TAP	1	288	2
TAP	1	312	1
TAP	1	336	0
TAP	1	360	7
HLD	2	0	2	96
TAP	2	96	3
HLD	2	144	2	96
TAP	2	240	1
TAP	2	288	0
TAP	3	0	6
TAP	3	48	7
TAP	3	144	5
TAP	3	192	4
TAP	3	288	2
TAP	3	288	3
HLD	4	0	5	96
TAP	4	96	4
HLD	4	144	5	96
TAP	4	240	6
TAP	4	288	7
TAP	5	0	1
TAP	5	48	0
TAP	5	144	2
TAP	5	192	3
TAP	5	288	4
TAP	5	288	5
HLD	6	0	0	96
TAP	6	96	7
HLD	6	144	0	96
TAP	6	240	2
TAP	6	288	1
TAP	7	0	6
TAP	7	48	5
TAP	7	144	4
TAP	7	192	3
TAP	7	288	0
TAP	7	288	7
HLD	8	0	7	96
TAP	8	96	0
HLD	8	144	7	96
TAP	8	240	5
TAP	8	288	6
TAP	9	0	1
TAP	9	48	2
TAP	9	144	0
TAP	9	144	7
TAP	9	192	1
TAP	9	216	2
TAP	9	240	3
TAP	9	264	4
TAP	9	288	5
TAP	9	312	6
TAP	9	336	7
TAP	9	360	0
TAP	10	0	5
TAP	10	48	5
TAP	10	96	3
HLD	10	144	3	96
TAP	10	240	4
TAP	10	288	3
TAP	10	288	5
TAP	11	0	0
TAP	11	48	1
TAP	11	48	7
TAP	11	144	2
TAP	11	144	6
TAP	11	192	1
TAP	11	192	5
TAP	11	240	0
TAP	11	240	4
TAP	11	288	3
TAP	11	288	7
TAP	12	0	0
TAP	12	48	6
TAP	12	96	2
HLD	12	144	4	96
TAP	12	240	3
TAP	12	288	2
TAP	12	288	4
TAP	13	0	7
TAP	13	48	0
TAP	13	48	6
TAP	13	144	1
TAP	13	144	5
TAP	13	192	2
TAP	13	192	6
TAP	13	240	3
TAP	13	240	7
TAP	13	288	0
TAP	13	288	4
TAP	14	0	6
TAP	14	48	2
TAP	14	96	7
HLD	14	144	3	96
TAP	14	240	0
TAP	14	288	1
TAP	14	288	7
TAP	15	0	4
TAP	15	48	3
TAP	15	48	5
STR	15	144	1
SI_	15	144	1	96	48	5
STR	15	192	5
SCR	15	192	5	96	48	0
TAP	16	0	6
TAP	16	48	2
TAP	16	96	7
HLD	16	144	3	96
TAP	16	240	0
TAP	16	288	1
TAP	16	288	7
TAP	17	0	3
TAP	17	48	2
TAP	17	48	4
TAP	17	144	0
TAP	17	168	7
TAP	17	192	0
TAP	17	240	1
TAP	17	240	6
TAP	17	288	1
TAP	17	288	6
HLD	18	0	3	384
TAP	18	0	4
TAP	18	96	4
TAP	18	192	4
TAP	18	288	4
TAP	18	336	4
HLD	19	0	4	288
TAP	19	96	1
TAP	19	144	1
TAP	19	240	0
TAP	19	288	0
HLD	20	0	0	384
TAP	20	0	7
TAP	20	96	7
TAP	20	192	7
TAP	20	288	7
TAP	20	336	7
HLD	21	0	7	144
TAP	21	96	3
HLD	21	144	3	144
TAP	21	240	4
TAP	21	288	4
HLD	22	0	1	384
TAP	22	0	2
TAP	22	96	2
TAP	22	192	2
TAP	22	288	2
TAP	22	336	2
HLD	23	0	2	144
TAP	23	96	0
HLD	23	144	0	144
TAP	23	240	7
HLD	23	288	7	96
HLD	24	0	6	144
HLD	24	144	5	144
HLD	24	288	4	96
TAP	25	0	7
TAP	25	96	7
TAP	25	192	0
TAP	25	216	7
TAP	25	240	0
TAP	25	288	1
TAP	25	288	6
TAP	26	0	2
TAP	26	48	3
TAP	26	96	4
TAP	26	144	5
TAP	26	240	0
TAP	26	240	7
TAP	26	288	2
TAP	26	288	5
TAP	27	0	2
HLD	27	48	2	96
TAP	27	96	3
HLD	27	144	3	96
TAP	27	192	4
HLD	27	240	4	96
TAP	27	288	5
TAP	27	336	5
TAP	28	0	5
TAP	28	48	4
TAP	28	96	3
TAP	28	144	2
TAP	28	240	0
TAP	28	240	7
TAP	28	288	2
TAP	28	288	5
TAP	29	0	5
HLD	29	48	5	96
TAP	29	96	4
HLD	29	144	4	96
TAP	29	192	3
HLD	29	240	3	96
TAP	29	288	2
TAP	29	336	2
TAP	30	0	7
TAP	30	48	0
TAP	30	96	4
TAP	30	144	3
TAP	30	240	3
TAP	30	240	6
TAP	30	288	2
TAP	30	288	7
TAP	30	336	0
TAP	30	336	1
TAP	31	48	1
TAP	31	48	4
TAP	31	96	0
TAP	31	96	5
TAP	31	144	6
TAP	31	144	7
TAP	31	240	0
TAP	31	240	7
TAP	31	288	1
TAP	31	288	6
TAP	31	336	2
TAP	31	336	5
STR	32	0	4
SCR	32	0	4	96	96	0
STR	32	96	0
SI_	32	96	0	96	96	4
STR	32	192	4
SCL	32	192	4	96	96	0
STR	32	288	0
SXL	32	288	0	96	240	3
SXR	32	288	0	96	240	5
BRK	34	0	2
BRK	34	0	5
TAP	34	96	0
TAP	34	144	7
TAP	34	240	2
TAP	34	288	3
TAP	34	336	1
TAP	34	336	4
TAP	35	0	2
TAP	35	0	3
TAP	35	96	7
TAP	35	144	0
TAP	35	240	5
TAP	35	288	4
TAP	35	336	3
TAP	35	336	6
TAP	36	0	4
TAP	36	0	5
TAP	36	96	2
TAP	36	144	0
TAP	36	144	4
TAP	36	240	5
TAP	36	288	3
TAP	36	288	7
TAP	37	0	0
TAP	37	96	6
TAP	37	144	0
TAP	37	144	4
TAP	37	240	1
TAP	37	288	3
TAP	37	288	7
STR	38	0	1
SCR	38	0	1	96	96	4
TAP	38	96	0
STR	38	144	7
SCL	38	144	7	96	96	4
TAP	38	240	2
TAP	38	288	1
TAP	38	336	0
HLD	39	0	3	96
HLD	39	0	7	96
TAP	39	144	1
TAP	39	144	5
TAP	39	240	1
TAP	39	240	5
TAP	39	288	2
TAP	39	288	6
TAP	39	336	3
TAP	39	336	7
TAP	40	0	0
TAP	40	0	4
TAP	40	96	2
TAP	40	96	6
TAP	40	144	0
TAP	40	144	7
TAP	40	240	2
TAP	40	240	3
TAP	40	288	4
TAP	40	288	5
TAP	40	336	2
TAP	40	336	3
TAP	41	0	4
TAP	41	0	5
TAP	41	48	3
TAP	41	48	6
TAP	41	96	2
TAP	41	96	7
STR	41	144	0
SUL	41	144	0	96	48	4
SUR	41	144	0	96	48	4
TAP	41	144	1
BRK	41	240	0
STR	42	0	6
SUL	42	0	6	96	48	2
STR	42	48	2
SCL	42	48	2	96	48	5
TAP	42	240	3
TAP	42	288	1
TAP	42	288	6
TAP	42	336	0
TAP	42	336	7
STR	43	0	0
SUL	43	0	0	96	96	2
STR	43	96	2
SUL	43	96	2	96	96	4
STR	43	192	4
SUL	43	192	4	96	96	6
STR	43	288	6
SUL	43	288	6	96	96	0
HLD	44	0	4	144
HLD	44	144	1	144
HLD	44	288	5	96
STR	45	0	4
SI_	45	0	4	96	48	0
TAP	45	96	4
TAP	45	192	1
TAP	45	240	2
TAP	45	288	3
STR	45	336	4
SI_	45	336	4	96	48	0
TAP	46	48	3
STR	46	96	3
SI_	46	96	3	96	48	7
TAP	46	192	6
TAP	46	288	0
TAP	46	288	5
TAP	46	336	1
TAP	46	336	4
TAP	47	0	2
TAP	47	0	3
TAP	47	96	6
TAP	47	96	7
TAP	47	144	0
TAP	47	144	5
STR	47	240	0
SI_	47	240	0	96	48	4
STR	47	240	1
SI_	47	240	1	96	48	4
TAP	47	336	0
TAP	47	336	1
TAP	48	96	3
TAP	48	144	2
TAP	48	144	4
STR	48	240	4
SCL	48	240	4	96	144	1
SCR	48	240	4	96	144	7
TAP	48	288	3
TAP	48	288	5
TAP	48	336	4
TAP	49	192	0
TAP	49	216	7
TAP	49	240	0
TAP	49	288	1
TAP	49	288	6
TAP	49	336	1
TAP	49	336	6
STR	50	0	0
SI_	50	0	0	96	48	2
STR	50	48	7
SI_	50	48	7	96	48	5
STR	50	96	0
SI_	50	96	0	96	48	4
STR	50	144	7
SI_	50	144	7	96	48	3
STR	50	192	0
SXL	50	192	0	96	48	2
STR	50	240	7
SXR	50	240	7	96	48	5
HLD	51	96	6	96
HLD	51	192	4	96
STR	51	288	2
SCL	51	288	2	96	192	5
HLD	52	0	2	192
STR	52	288	3
SXR	52	288	3	96	192	0
STR	52	288	4
SXL	52	288	4	96	192	7
TAP	52	336	3
TAP	52	336	4
TAP	53	288	6
TAP	53	288	7
TAP	53	336	0
TAP	53	336	5
TAP	54	0	1
TAP	54	0	4
TAP	54	96	1
TAP	54	96	2
TAP	54	144	2
TAP	54	144	3
TAP	54	240	5
TAP	54	240	6
TAP	54	288	4
STR	54	288	5
SCR	54	288	5	96	96	1
STR	55	0	1
SCR	55	0	1	96	96	5
STR	55	96	5
SCR	55	96	5	96	96	1
TAP	55	288	3
TAP	55	336	2
STR	56	0	1
SCR	56	0	1	96	96	5
STR	56	96	5
SCR	56	96	5	96	96	1
STR	56	192	1
SCR	56	192	1	96	96	5
TAP	57	0	7
TAP	57	96	0
TAP	57	120	7
TAP	57	144	0
TAP	57	192	1
TAP	57	192	6
TAP	57	240	2
TAP	57	240	5
TAP	57	288	3
TAP	57	288	4
STR	58	0	0
SCL	58	0	0	96	48	5
TAP	58	0	1
TAP	58	48	2
TAP	58	96	3
TAP	58	144	4
TAP	58	240	6
STR	58	240	7
SCR	58	240	7	96	48	2
TAP	58	288	5
TAP	58	336	4
TAP	59	48	2
STR	59	48	3
SCL	59	48	3	96	1776	4
TAP	59	96	1
TAP	59	144	0

T_REC_TAP	325
T_REC_BRK	3
T_REC_XTP	0
T_REC_HLD	38
T_REC_XHO	0
T_REC_STR	39
T_REC_BST	0
T_REC_XST	0
T_REC_TTP	0
T_REC_THO	0
T_REC_SLD	42
T_REC_ALL	447
T_NUM_TAP	364
T_NUM_BRK	3
T_NUM_HLD	38
T_NUM_SLD	42
T_NUM_ALL	447
T_JUDGE_TAP	367
T_JUDGE_HLD	108
T_JUDGE_SLD	42
T_JUDGE_ALL	517
TTM_EACHPAIRS	93
TTM_SCR_TAP	182000
TTM_SCR_BRK	7800
TTM_SCR_HLD	38000
TTM_SCR_SLD	63000
TTM_SCR_ALL	290800
TTM_SCR_S	281800
TTM_SCR_SS	290500
TTM_RAT_ACV	10010

