VERSION	0.00.00	1.03.00
FES_MODE	0
BPM_DEF	170.000	170.000	170.000	170.000
MET_DEF	4	4
RESOLUTION	384
CLK_DEF	384
COMPATIBLE_CODE	MA2

BPM	0	0	170.000
MET	0	0	4	4

TAP	1	0	0
TAP	1	96	7
TAP	1	192	1
TAP	1	192	6
TAP	1	288	0
TAP	1	288	7
TAP	2	0	1
TAP	2	192	2
TAP	3	0	2
TAP	3	96	3
TAP	3	192	1
TAP	3	192	4
TAP	4	0	6
TAP	4	192	5
TAP	5	0	5
TAP	5	96	4
TAP	5	192	3
TAP	5	192	6
TAP	6	0	0
TAP	6	192	7
TAP	7	0	0
TAP	7	0	7
TAP	7	96	1
TAP	7	96	6
TAP	7	192	2
TAP	7	192	5
TAP	8	0	3
TAP	8	192	4
TAP	9	0	3
TAP	9	0	4
TAP	9	96	1
TAP	9	96	6
BRK	9	192	0
BRK	9	192	7
TAP	10	0	2
TAP	10	96	3
TAP	10	192	4
TAP	10	288	5
TAP	11	0	5
TAP	11	96	4
TAP	11	192	2
TAP	11	192	3
TAP	12	0	1
TAP	12	96	0
TAP	12	192	7
TAP	12	288	6
TAP	13	0	6
TAP	13	96	7
TAP	13	192	0
TAP	13	192	1
TAP	14	0	7
TAP	14	96	0
TAP	14	192	7
TAP	14	288	1
TAP	14	288	6
TAP	15	0	2
TAP	15	96	3
TAP	15	192	4
TAP	15	192	5
TAP	16	0	0
TAP	16	96	7
TAP	16	192	0
TAP	16	288	1
TAP	16	288	6
TAP	17	0	6
TAP	17	96	7
BRK	17	192	0
BRK	17	192	1
HLD	18	0	0	192
TAP	18	192	7
TAP	19	0	7
TAP	19	96	6
TAP	19	192	5
HLD	20	0	5	192
TAP	20	192	4
TAP	21	0	5
TAP	21	96	4
TAP	21	192	3
HLD	22	0	2	192
TAP	22	192	3
TAP	23	0	2
TAP	23	96	1
TAP	23	192	0
HLD	24	0	7	192
TAP	24	192	0
TAP	25	0	1
TAP	25	0	6
TAP	25	96	1
TAP	25	96	6
BRK	25	192	0
BRK	25	192	7
STR	26	0	7
SI_	26	0	7	96	96	4
STR	26	192	0
SI_	26	192	0	96	96	3
TAP	27	0	4
TAP	27	96	6
TAP	27	192	0
TAP	27	192	7
STR	28	0	0
SI_	28	0	0	96	96	3
STR	28	192	7
SI_	28	192	7	96	96	4
TAP	29	0	3
TAP	29	96	1
TAP	29	192	0
TAP	29	192	7
STR	30	0	6
SI_	30	0	6	96	96	3
STR	30	192	1
SI_	30	192	1	96	96	4
TAP	31	0	7
TAP	31	96	0
TAP	31	96	6
TAP	31	192	1
TAP	31	192	5
TAP	31	288	2
TAP	31	288	4
STR	32	0	3
SI_	32	0	3	96	192	0
SI_	32	0	3	96	192	6
TAP	33	0	1
TAP	33	0	6
TAP	33	96	0
TAP	33	96	7
BRK	33	192	1
BRK	33	192	6
TAP	34	0	2
TAP	34	96	3
TAP	34	192	1
TAP	34	192	4
TAP	35	0	5
TAP	35	96	4
TAP	35	192	3
TAP	35	192	6
TAP	36	0	3
TAP	36	96	4
TAP	36	192	2
TAP	36	192	5
TAP	37	0	0
TAP	37	96	7
TAP	37	192	1
TAP	37	192	6
TAP	37	288	0
TAP	37	288	7
TAP	38	0	2
TAP	38	96	2
TAP	38	96	3
TAP	38	192	5
TAP	38	288	4
TAP	38	288	5
TAP	39	0	0
TAP	39	96	7
TAP	39	192	2
TAP	39	192	5
HLD	40	0	0	192
TAP	40	96	7
TAP	40	192	7
STR	41	0	0
SUL	41	0	0	96	192	4
SUR	41	0	0	96	192	4
BRK	42	0	4
TAP	42	96	3
TAP	42	96	5
TAP	42	192	2
TAP	42	192	6
TAP	42	288	1
TAP	42	288	7
TAP	43	0	0
TAP	43	96	1
TAP	43	96	7
TAP	43	192	2
TAP	43	192	6
TAP	43	288	3
TAP	43	288	5
TAP	44	0	4
TAP	44	96	3
TAP	44	192	1
TAP	44	192	6
TAP	44	288	0
TAP	44	288	7
TAP	45	0	0
TAP	45	96	7
TAP	45	192	2
TAP	45	192	5
TAP	45	288	3
TAP	45	288	4
TAP	46	0	2
TAP	46	0	3
TAP	46	96	2
TAP	46	96	3
TAP	46	192	3
TAP	46	192	4
TAP	46	288	4
TAP	46	288	5
TAP	47	0	4
TAP	47	0	5
TAP	47	96	4
TAP	47	96	5
TAP	47	192	3
TAP	47	192	4
TAP	47	288	2
TAP	47	288	3
TAP	48	0	0
TAP	48	0	1
TAP	48	96	0
TAP	48	96	1
TAP	48	192	6
TAP	48	192	7
TAP	48	288	6
TAP	48	288	7
TAP	49	0	0
TAP	49	0	1
TAP	49	96	2
TAP	49	96	3
TAP	49	192	4
TAP	49	192	5
BRK	49	288	6
BRK	49	288	7
STR	50	0	0
SI_	50	0	0	96	48	2
STR	50	192	7
SI_	50	192	7	96	48	5
STR	51	0	1
SI_	51	0	1	96	48	3
STR	51	192	6
SI_	51	192	6	96	48	4
STR	52	0	0
SXL	52	0	0	96	288	3
STR	53	0	7
SXR	53	0	7	96	288	4
TAP	54	0	0
TAP	54	96	1
TAP	54	192	2
TAP	54	288	3
TAP	55	0	4
TAP	55	96	5
TAP	55	192	6
TAP	55	288	7
STR	56	0	0
SXL	56	0	0	96	288	3
STR	56	0	7
SXR	56	0	7	96	288	4
TAP	57	96	2
TAP	57	96	5
TAP	57	192	0
TAP	57	240	7
TAP	57	288	0
HLD	58	0	1	144
HLD	58	0	6	144
HLD	58	336	7	192
STR	59	144	0
SI_	59	144	0	96	528	3
SI_	59	144	0	96	528	5

T_REC_TAP	198
T_REC_BRK	11
T_REC_XTP	0
T_REC_HLD	8
T_REC_XHO	0
T_REC_STR	17
T_REC_BST	0
T_REC_XST	0
T_REC_TTP	0
T_REC_THO	0
T_REC_SLD	20
T_REC_ALL	254
T_NUM_TAP	215
T_NUM_BRK	11
T_NUM_HLD	8
T_NUM_SLD	20
T_NUM_ALL	254
T_JUDGE_TAP	226
T_JUDGE_HLD	30
T_JUDGE_SLD	20
T_JUDGE_ALL	276
TTM_EACHPAIRS	64
TTM_SCR_TAP	107500
TTM_SCR_BRK	28600
TTM_SCR_HLD	8000
TTM_SCR_SLD	30000
TTM_SCR_ALL	174100
TTM_SCR_S	167850
TTM_SCR_SS	173000
TTM_RAT_ACV	10063

