VERSION	0.00.00	1.03.00
FES_MODE	0
BPM_DEF	170.000	170.000	170.000	170.000
MET_DEF	4	4
RESOLUTION	384
CLK_DEF	384
COMPATIBLE_CODE	MA2

BPM	0	0	170.000
MET	0	0	4	4

TAP	2	0	0
TAP	2	192	0
TAP	3	0	7
TAP	3	192	7
TAP	4	0	1
TAP	4	192	1
TAP	5	0	6
TAP	5	192	6
TAP	6	0	0
TAP	6	192	0
TAP	6	192	7
TAP	7	0	7
TAP	7	192	0
TAP	7	192	7
TAP	8	0	1
TAP	8	192	0
TAP	8	192	7
TAP	9	0	6
BRK	9	192	0
BRK	9	192	7
TAP	10	0	0
TAP	10	192	0
TAP	11	0	1
TAP	11	192	1
TAP	12	0	2
TAP	12	192	2
TAP	13	0	3
TAP	13	192	3
TAP	13	192	4
TAP	14	0	4
TAP	14	192	4
TAP	15	0	5
TAP	15	192	5
TAP	16	0	6
TAP	16	192	6
TAP	17	0	7
BRK	17	192	0
BRK	17	192	7
TAP	18	0	0
TAP	18	192	0
TAP	19	0	1
TAP	19	192	0
TAP	19	192	1
TAP	20	0	2
TAP	20	192	2
TAP	21	0	3
TAP	21	192	3
TAP	21	192	4
TAP	22	0	4
TAP	22	192	4
TAP	23	0	5
TAP	23	192	4
TAP	23	192	5
HLD	24	0	6	384
TAP	26	0	7
TAP	26	192	7
TAP	27	0	6
TAP	27	192	6
TAP	27	192	7
TAP	28	0	5
TAP	28	192	5
TAP	29	0	4
TAP	29	192	3
TAP	29	192	4
TAP	30	0	3
TAP	30	192	3
TAP	31	0	2
TAP	31	192	2
TAP	31	192	3
HLD	32	0	1	384
STR	34	0	0
SI_	34	0	0	96	288	4
STR	36	0	7
SI_	36	0	7	96	288	3
TAP	38	0	2
TAP	38	192	2
TAP	39	0	1
TAP	39	192	1
TAP	40	0	0
TAP	40	192	0
TAP	41	0	7
BRK	41	192	7
TAP	42	0	0
TAP	42	96	0
TAP	42	192	0
TAP	43	0	1
TAP	43	96	1
TAP	43	192	1
HLD	44	0	2	384
TAP	46	0	4
TAP	46	96	4
TAP	46	192	4
TAP	47	0	5
TAP	47	96	5
TAP	47	192	5
HLD	48	0	6	384
TAP	50	0	7
TAP	50	96	7
TAP	50	192	7
TAP	51	0	6
TAP	51	96	6
TAP	51	192	6
HLD	52	0	5	384
TAP	54	0	3
TAP	54	96	3
TAP	54	192	3
TAP	55	0	2
TAP	55	96	2
TAP	55	192	2
HLD	56	0	1	384
TAP	58	0	0
TAP	58	0	7
TAP	58	192	0
TAP	58	192	7
STR	59	0	0
SI_	59	0	0	96	288	3
STR	59	0	7
SI_	59	0	7	96	288	4

T_REC_TAP	99
T_REC_BRK	5
T_REC_XTP	0
T_REC_HLD	6
T_REC_XHO	0
T_REC_STR	4
T_REC_BST	0
T_REC_XST	0
T_REC_TTP	0
T_REC_THO	0
T_REC_SLD	4
T_REC_ALL	118
T_NUM_TAP	103
T_NUM_BRK	5
T_NUM_HLD	6
T_NUM_SLD	4
T_NUM_ALL	118
T_JUDGE_TAP	108
T_JUDGE_HLD	48
T_JUDGE_SLD	4
T_JUDGE_ALL	160
TTM_EACHPAIRS	15
TTM_SCR_TAP	51500
TTM_SCR_BRK	13000
TTM_SCR_HLD	6000
TTM_SCR_SLD	6000
TTM_SCR_ALL	76500
TTM_SCR_S	73750
TTM_SCR_SS	76000
TTM_RAT_ACV	10065

