VERSION	0.00.00	1.03.00
FES_MODE	0
BPM_DEF	160.000	160.000	160.000	160.000
MET_DEF	4	4
RESOLUTION	384
CLK_DEF	384
COMPATIBLE_CODE	MA2

BPM	0	0	160.000
MET	0	0	4	4

TAP	1	48	1
TAP	1	96	1
TAP	1	192	0
STR	1	288	0
SXR	1	288	0	96	336	5
STR	1	288	1
SXL	1	288	1	96	336	4
TAP	1	336	0
TAP	1	336	1
TAP	3	48	6
TAP	3	96	6
TAP	3	192	7
STR	3	288	6
SXR	3	288	6	96	336	3
STR	3	288	7
SXL	3	288	7	96	336	2
TAP	3	336	6
TAP	3	336	7
TAP	5	48	1
TAP	5	96	1
TAP	5	192	0
TAP	5	288	0
HLD	5	336	1	144
HLD	6	96	3	96
HLD	6	192	4	96
TAP	6	288	6
HLD	6	336	6	144
HLD	7	96	4	96
HLD	7	192	3	96
TAP	7	288	1
HLD	7	336	1	144
HLD	8	96	0	96
HLD	8	192	7	96
TAP	8	288	6
TAP	8	336	6
TAP	9	48	1
TAP	9	96	0
TAP	9	192	2
TAP	9	192	7
STR	9	288	4
SXR	9	288	4	96	336	1
STR	9	288	5
SXL	9	288	5	96	336	0
TAP	9	336	4
TAP	9	336	5
TAP	11	48	6
TAP	11	96	7
TAP	11	192	0
TAP	11	192	5
STR	11	288	2
SXR	11	288	2	96	336	7
STR	11	288	3
SXL	11	288	3	96	336	6
TAP	11	336	2
TAP	11	336	3
TAP	13	48	1
TAP	13	96	0
TAP	13	192	2
TAP	13	192	7
TAP	13	288	4
TAP	13	288	5
TAP	13	336	4
HLD	13	336	5	144
HLD	14	96	7	96
HLD	14	192	0	96
TAP	14	288	2
HLD	14	336	2	144
TAP	14	336	3
HLD	15	96	0	96
HLD	15	192	7	96
TAP	15	288	5
HLD	15	336	4	144
TAP	15	336	5
HLD	16	96	3	96
HLD	16	192	1	96
STR	16	288	7
SXL	16	288	7	96	192	4
SXR	16	288	7	96	192	2
TAP	16	336	7
TAP	17	288	1
TAP	17	288	6
STR	18	0	2
SCL	18	0	2	96	96	6
STR	18	96	6
SCL	18	96	6	96	96	2
STR	18	192	2
SCL	18	192	2	96	96	6
STR	18	288	6
SF_	18	288	6	96	192	2
TAP	18	336	6
TAP	19	288	3
TAP	19	288	4
STR	20	0	5
SCR	20	0	5	96	96	1
STR	20	96	1
SCR	20	96	1	96	96	5
STR	20	192	5
SCR	20	192	5	96	96	1
STR	20	288	1
SF_	20	288	1	96	192	5
TAP	20	336	1
TAP	21	288	0
TAP	21	288	7
STR	22	0	2
SLL	22	0	2	96	96	6
STR	22	96	6
SLL	22	96	6	96	96	2
STR	22	192	2
SLL	22	192	2	96	96	6
STR	22	288	6
SF_	22	288	6	96	192	2
TAP	22	336	6
TAP	23	288	3
TAP	23	288	4
STR	24	0	5
SLR	24	0	5	96	96	1
STR	24	96	1
SLR	24	96	1	96	96	5
STR	24	192	5
SLR	24	192	5	96	96	1
STR	24	288	1
SF_	24	288	1	96	192	5
TAP	24	336	1
BRK	25	288	0
BRK	25	288	7
TAP	26	0	3
TAP	26	96	5
TAP	26	144	4
TAP	26	144	6
TAP	26	240	2
TAP	26	288	1
TAP	26	288	3
TAP	27	0	4
TAP	27	48	2
TAP	27	96	3
HLD	27	144	4	96
TAP	27	240	5
TAP	27	288	3
TAP	27	288	6
TAP	28	0	4
TAP	28	96	2
TAP	28	144	1
TAP	28	144	3
TAP	28	240	5
TAP	28	288	4
TAP	28	288	6
TAP	29	0	5
TAP	29	48	4
TAP	29	96	3
HLD	29	144	2	96
TAP	29	240	1
TAP	29	288	0
TAP	29	288	7
TAP	30	0	4
TAP	30	96	2
TAP	30	144	1
TAP	30	144	3
TAP	30	240	5
TAP	30	288	4
TAP	30	288	6
TAP	31	0	3
TAP	31	48	5
TAP	31	96	4
HLD	31	144	3	96
TAP	31	240	2
TAP	31	288	1
TAP	31	288	4
TAP	32	0	3
TAP	32	96	5
TAP	32	144	4
TAP	32	144	6
TAP	32	240	2
TAP	32	288	1
TAP	32	288	3
TAP	33	0	2
TAP	33	48	3
TAP	33	96	4
TAP	33	144	5
BRK	33	192	6
BRK	33	192	7
BRK	33	264	0
BRK	33	264	7
BRK	33	336	0
BRK	33	336	1
TAP	34	0	7
TAP	34	96	1
TAP	34	144	0
TAP	34	144	2
TAP	34	240	6
TAP	34	288	5
TAP	34	288	7
TAP	35	0	0
TAP	35	48	6
TAP	35	96	7
HLD	35	144	0	96
TAP	35	240	1
TAP	35	288	2
TAP	35	288	7
TAP	36	0	0
TAP	36	96	6
TAP	36	144	5
TAP	36	144	7
TAP	36	240	1
TAP	36	288	0
TAP	36	288	2
TAP	37	0	1
TAP	37	48	0
TAP	37	96	7
BRK	37	144	1
HLD	37	144	6	96
TAP	37	240	5
TAP	37	288	3
TAP	37	288	4
TAP	38	0	0
TAP	38	96	6
TAP	38	144	5
TAP	38	144	7
TAP	38	240	1
TAP	38	288	0
TAP	38	288	2
TAP	39	0	7
TAP	39	48	1
TAP	39	96	0
HLD	39	144	7	96
TAP	39	240	6
TAP	39	288	0
TAP	39	288	5
TAP	40	0	7
TAP	40	96	1
TAP	40	144	0
TAP	40	144	2
TAP	40	240	6
TAP	40	288	5
TAP	40	288	7
TAP	41	0	6
TAP	41	48	7
TAP	41	96	0
TAP	41	144	1
BRK	41	192	2
BRK	41	192	3
BRK	41	264	3
BRK	41	264	4
BRK	41	336	4
BRK	41	336	5
HLD	42	0	6	96
HLD	42	96	4	48
HLD	42	144	3	96
HLD	42	240	1	48
TAP	42	288	0
HLD	43	0	1	96
HLD	43	96	3	48
HLD	43	144	4	96
HLD	43	240	6	48
TAP	43	288	7
HLD	44	0	5	96
HLD	44	96	3	48
HLD	44	144	2	96
HLD	44	240	0	48
TAP	44	288	7
TAP	45	0	1
TAP	45	48	2
TAP	45	96	3
HLD	45	144	4	96
TAP	45	240	5
TAP	45	288	5
HLD	46	0	2	96
HLD	46	96	0	48
HLD	46	144	7	96
HLD	46	240	5	48
TAP	46	288	4
HLD	47	0	5	96
HLD	47	96	7	48
HLD	47	144	0	96
HLD	47	240	2	48
TAP	47	288	3
HLD	48	0	1	96
HLD	48	96	7	48
HLD	48	144	6	96
HLD	48	240	4	48
TAP	48	288	3
TAP	49	0	5
TAP	49	48	6
TAP	49	96	7
HLD	49	144	0	96
TAP	49	240	1
TAP	49	288	1
STR	50	0	0
SCR	50	0	0	96	48	3
STR	50	144	5
SCR	50	144	5	96	48	0
STR	50	288	2
SI_	50	288	2	96	48	6
STR	51	0	7
SCL	51	0	7	96	48	4
STR	51	144	2
SCL	51	144	2	96	48	7
STR	51	288	5
SI_	51	288	5	96	48	1
STR	52	0	3
SCL	52	0	3	96	48	0
STR	52	144	6
SCL	52	144	6	96	48	3
STR	52	288	1
SI_	52	288	1	96	48	5
STR	53	0	4
SCR	53	0	4	96	48	7
STR	53	144	1
SCR	53	144	1	96	48	4
BRK	53	288	6
TAP	54	0	2
TAP	54	48	3
TAP	54	96	1
TAP	54	96	4
TAP	54	144	2
TAP	54	168	3
TAP	54	192	2
TAP	54	240	3
TAP	54	288	1
TAP	54	288	4
TAP	54	336	2
TAP	55	0	5
TAP	55	48	4
TAP	55	96	3
TAP	55	96	6
TAP	55	144	5
TAP	55	168	4
TAP	55	192	5
TAP	55	240	4
TAP	55	288	3
TAP	55	288	6
TAP	55	336	5
TAP	56	0	0
TAP	56	48	1
TAP	56	96	2
TAP	56	144	3
TAP	56	192	4
TAP	56	240	5
TAP	56	288	6
TAP	56	336	7
TAP	57	0	0
TAP	57	24	7
TAP	57	48	1
TAP	57	72	6
TAP	57	96	2
TAP	57	120	5
TAP	57	144	3
TAP	57	192	6
TAP	57	192	7
TAP	57	264	3
TAP	57	264	4
TAP	57	336	0
TAP	57	336	1
BST	58	0	0
SCL	58	0	0	96	48	5
SCR	58	0	0	96	48	3
BST	58	192	4
SCL	58	192	4	96	48	1
SCR	58	192	4	96	48	7
STR	59	0	0
SI_	59	0	0	96	48	4
STR	59	96	4
SI_	59	96	4	96	48	0
STR	59	192	0
SI_	59	192	0	96	48	3
SI_	59	192	0	96	48	5
STR	60	0	7
SI_	60	0	7	96	48	3
STR	60	96	3
SI_	60	96	3	96	48	7
STR	60	192	7
SI_	60	192	7	96	48	2
SI_	60	192	7	96	48	4
STR	61	0	0
SI_	61	0	0	96	48	4
STR	61	96	1
SI_	61	96	1	96	48	5
STR	61	192	2
SI_	61	192	2	96	48	6
STR	61	288	3
SI_	61	288	3	96	48	7
STR	62	0	4
SI_	62	0	4	96	48	0
STR	62	96	5
SI_	62	96	5	96	48	1
STR	62	192	6
SI_	62	192	6	96	48	2
TAP	62	288	7
STR	63	0	0
SCR	63	0	0	96	48	3
STR	63	96	0
SCL	63	96	0	96	48	5
STR	63	192	0
SF_	63	192	0	96	48	4
TAP	63	288	0
STR	64	0	7
SCL	64	0	7	96	48	4
STR	64	96	7
SCR	64	96	7	96	48	2
STR	64	192	7
SF_	64	192	7	96	48	3
TAP	64	288	7
STR	65	0	0
SCR	65	0	0	96	96	4
STR	65	96	4
SCR	65	96	4	96	96	0
STR	65	192	0
SLR	65	192	0	96	96	4
STR	65	288	4
SLR	65	288	4	96	96	0
STR	66	0	0
SUL	66	0	0	96	96	4
SUR	66	0	0	96	96	4
TAP	66	288	1
TAP	66	288	6
STR	67	0	7
SI_	67	0	7	96	48	3
STR	67	96	3
SI_	67	96	3	96	48	7
STR	67	192	7
SI_	67	192	7	96	48	2
SI_	67	192	7	96	48	4
STR	68	0	0
SI_	68	0	0	96	48	4
STR	68	96	4
SI_	68	96	4	96	48	0
STR	68	192	0
SI_	68	192	0	96	48	3
SI_	68	192	0	96	48	5
STR	69	0	7
SI_	69	0	7	96	48	3
STR	69	96	6
SI_	69	96	6	96	48	2
STR	69	192	5
SI_	69	192	5	96	48	1
STR	69	288	4
SI_	69	288	4	96	48	0
STR	70	0	3
SI_	70	0	3	96	48	7
STR	70	96	2
SI_	70	96	2	96	48	6
STR	70	192	1
SI_	70	192	1	96	48	5
TAP	70	288	0
STR	71	0	7
SCL	71	0	7	96	48	4
STR	71	96	7
SCR	71	96	7	96	48	2
STR	71	192	7
SF_	71	192	7	96	48	3
TAP	71	288	7
STR	72	0	0
SCR	72	0	0	96	48	3
STR	72	96	0
SCL	72	96	0	96	48	5
STR	72	192	0
SF_	72	192	0	96	48	4
TAP	72	288	0
STR	73	0	0
SCL	73	0	0	96	192	1
SCR	73	0	0	96	192	7
TAP	74	0	5
TAP	74	48	0
TAP	74	96	1
TAP	74	192	7
STR	74	288	0
SXL	74	288	0	96	288	3
STR	74	288	6
SXR	74	288	6	96	288	3
TAP	74	336	0
TAP	74	336	6
TAP	76	0	2
TAP	76	48	7
TAP	76	96	6
TAP	76	192	0
STR	76	288	1
SXL	76	288	1	96	288	4
STR	76	288	7
SXR	76	288	7	96	288	4
TAP	76	336	1
TAP	76	336	7
TAP	78	0	5
TAP	78	48	0
TAP	78	96	1
TAP	78	192	7
TAP	78	288	6
TAP	78	336	6
STR	79	0	0
SI_	79	0	0	96	48	4
STR	79	96	5
SI_	79	96	5	96	48	7
STR	79	192	3
SI_	79	192	3	96	48	1
TAP	79	288	0
TAP	79	336	0
STR	80	0	7
SI_	80	0	7	96	48	3
STR	80	96	2
SI_	80	96	2	96	48	0
STR	80	192	4
SI_	80	192	4	96	48	6
TAP	80	288	0
TAP	80	336	0
STR	81	0	1
SI_	81	0	1	96	48	5
STR	81	96	6
SI_	81	96	6	96	48	0
STR	81	192	4
SI_	81	192	4	96	48	2
TAP	81	288	7
TAP	81	336	7
TAP	82	0	5
TAP	82	48	0
TAP	82	96	1
TAP	82	192	2
TAP	82	192	7
STR	82	288	3
SXR	82	288	3	96	288	0
STR	82	288	5
SXL	82	288	5	96	288	0
TAP	82	336	3
TAP	82	336	5
TAP	84	0	2
TAP	84	48	7
TAP	84	96	6
TAP	84	192	0
TAP	84	192	5
STR	84	288	2
SXR	84	288	2	96	288	7
STR	84	288	4
SXL	84	288	4	96	288	7
TAP	84	336	2
TAP	84	336	4
TAP	86	0	2
TAP	86	48	7
TAP	86	96	6
TAP	86	192	0
TAP	86	288	1
TAP	86	336	1
STR	87	0	7
SI_	87	0	7	96	48	3
STR	87	96	2
SI_	87	96	2	96	48	0
STR	87	192	4
SI_	87	192	4	96	48	6
TAP	87	288	7
TAP	87	336	7
STR	88	0	0
SI_	88	0	0	96	48	4
STR	88	96	5
SI_	88	96	5	96	48	7
STR	88	192	3
SI_	88	192	3	96	48	1
TAP	88	288	7
TAP	88	336	7
STR	89	0	6
SI_	89	0	6	96	48	2
STR	89	96	1
SI_	89	96	1	96	48	7
STR	89	192	3
SI_	89	192	3	96	48	5
STR	89	288	0
SXL	89	288	0	96	192	5
SXR	89	288	0	96	192	3
TAP	89	336	0
TAP	90	288	1
TAP	90	288	6
TAP	91	0	6
TAP	91	48	4
TAP	91	96	5
HLD	91	144	3	96
HLD	91	240	2	96
TAP	91	336	1
TAP	92	0	1
TAP	92	48	3
TAP	92	96	2
HLD	92	144	4	96
HLD	92	240	5	96
TAP	92	336	6
TAP	93	0	6
TAP	93	48	0
TAP	93	96	7
HLD	93	144	1	96
HLD	93	240	2	96
TAP	93	336	3
STR	94	0	4
SI_	94	0	4	96	48	0
TAP	94	48	3
TAP	94	96	2
STR	94	192	1
SI_	94	192	1	96	48	5
TAP	94	240	0
TAP	94	288	7
TAP	95	0	4
TAP	95	96	0
TAP	95	192	6
STR	95	288	2
SXR	95	288	2	96	336	5
TAP	95	336	2

T_REC_TAP	292
T_REC_BRK	16
T_REC_XTP	0
T_REC_HLD	56
T_REC_XHO	0
T_REC_STR	110
T_REC_BST	2
T_REC_XST	0
T_REC_TTP	0
T_REC_THO	0
T_REC_SLD	122
T_REC_ALL	598
T_NUM_TAP	402
T_NUM_BRK	18
T_NUM_HLD	56
T_NUM_SLD	122
T_NUM_ALL	598
T_JUDGE_TAP	420
T_JUDGE_HLD	106
T_JUDGE_SLD	122
T_JUDGE_ALL	648
TTM_EACHPAIRS	68
TTM_SCR_TAP	201000
TTM_SCR_BRK	46800
TTM_SCR_HLD	56000
TTM_SCR_SLD	183000
TTM_SCR_ALL	486800
TTM_SCR_S	470450
TTM_SCR_SS	485000
TTM_RAT_ACV	10037

