VERSION	0.00.00	1.03.00
FES_MODE	0
BPM_DEF	160.000	160.000	160.000	160.000
MET_DEF	4	4
RESOLUTION	384
CLK_DEF	384
COMPATIBLE_CODE	MA2

BPM	0	0	160.000
MET	0	0	4	4

STR	2	0	4
SCL	2	0	4	96	192	1
STR	3	0	3
SCR	3	0	3	96	192	6
STR	4	0	0
SCL	4	0	0	96	192	5
TAP	5	0	0
TAP	5	0	1
TAP	5	192	6
TAP	5	192	7
STR	6	0	3
SCR	6	0	3	96	192	6
STR	7	0	4
SCL	7	0	4	96	192	1
STR	8	0	7
SCR	8	0	7	96	192	2
TAP	9	0	6
TAP	9	0	7
TAP	9	192	0
TAP	9	192	1
STR	10	0	4
SCL	10	0	4	96	144	1
TAP	10	288	0
STR	11	0	3
SCR	11	0	3	96	144	6
TAP	11	288	7
STR	12	0	0
SCL	12	0	0	96	144	5
TAP	12	288	4
STR	13	0	7
SCR	13	0	7	96	144	2
TAP	13	288	3
STR	14	0	4
SCR	14	0	4	96	144	7
TAP	14	288	0
STR	15	0	3
SCL	15	0	3	96	144	0
TAP	15	288	7
STR	16	0	2
SCR	16	0	2	96	144	5
TAP	16	288	6
STR	17	0	3
SCL	17	0	3	96	240	4
TAP	18	0	6
TAP	18	96	5
TAP	18	96	7
TAP	18	192	1
TAP	18	288	0
TAP	18	288	2
TAP	19	0	5
TAP	19	96	4
TAP	19	96	6
TAP	19	192	2
TAP	19	192	3
TAP	19	288	0
TAP	19	288	7
TAP	20	0	1
TAP	20	96	0
TAP	20	96	2
TAP	20	192	6
TAP	20	288	5
TAP	20	288	7
TAP	21	0	2
TAP	21	96	1
TAP	21	96	3
TAP	21	192	4
TAP	21	192	5
TAP	21	288	3
TAP	21	288	6
TAP	22	0	1
TAP	22	96	0
TAP	22	96	2
TAP	22	192	6
TAP	22	288	5
TAP	22	288	7
TAP	23	0	2
TAP	23	96	1
TAP	23	96	3
TAP	23	192	4
TAP	23	192	5
TAP	23	288	0
TAP	23	288	7
TAP	24	0	6
TAP	24	96	5
TAP	24	96	7
TAP	24	192	1
TAP	24	288	0
TAP	24	288	2
TAP	25	0	5
TAP	25	96	4
TAP	25	96	6
TAP	25	192	2
TAP	25	192	3
TAP	25	288	1
TAP	25	288	4
STR	26	0	4
SCL	26	0	4	96	96	1
TAP	26	240	0
TAP	26	288	7
STR	27	0	3
SCR	27	0	3	96	96	6
TAP	27	240	7
TAP	27	288	0
STR	28	0	0
SCL	28	0	0	96	96	5
TAP	28	240	4
TAP	28	288	3
STR	29	0	7
SCR	29	0	7	96	96	2
TAP	29	240	3
TAP	29	288	4
STR	30	0	3
SCL	30	0	3	96	96	0
TAP	30	240	7
TAP	30	288	6
STR	31	0	4
SCR	31	0	4	96	96	7
TAP	31	240	0
TAP	31	288	1
STR	32	0	2
SCR	32	0	2	96	96	5
TAP	32	240	6
TAP	32	288	7
STR	33	0	1
SUR	33	0	1	96	192	4
TAP	34	0	5
TAP	34	96	0
TAP	34	96	1
TAP	34	240	2
TAP	34	288	1
TAP	34	288	4
TAP	35	0	2
TAP	35	96	6
TAP	35	96	7
TAP	35	240	5
TAP	35	288	3
TAP	35	288	6
TAP	36	0	1
TAP	36	96	4
TAP	36	96	5
TAP	36	240	6
TAP	36	288	0
TAP	36	288	5
TAP	37	0	6
TAP	37	96	2
TAP	37	96	3
TAP	37	240	1
TAP	37	288	2
TAP	37	288	7
TAP	38	0	2
TAP	38	96	6
TAP	38	96	7
TAP	38	240	5
TAP	38	288	3
TAP	38	288	6
TAP	39	0	5
TAP	39	96	0
TAP	39	96	1
TAP	39	240	2
TAP	39	288	1
TAP	39	288	4
TAP	40	0	6
TAP	40	96	2
TAP	40	96	3
TAP	40	240	1
TAP	40	288	2
TAP	40	288	7
TAP	41	0	1
TAP	41	96	4
TAP	41	96	5
TAP	41	240	6
TAP	41	288	0
TAP	41	288	5
STR	42	0	3
SUL	42	0	3	96	96	6
TAP	42	288	0
TAP	42	288	7
STR	43	0	4
SUR	43	0	4	96	96	1
TAP	43	288	0
TAP	43	288	7
STR	44	0	7
SUL	44	0	7	96	96	2
TAP	44	288	3
TAP	44	288	4
STR	45	0	0
SUR	45	0	0	96	96	5
TAP	45	288	3
TAP	45	288	4
STR	46	0	4
SUL	46	0	4	96	96	7
TAP	46	288	0
TAP	46	288	1
STR	47	0	3
SUR	47	0	3	96	96	0
TAP	47	288	6
TAP	47	288	7
STR	48	0	5
SUR	48	0	5	96	96	2
TAP	48	288	0
TAP	48	288	1
STR	49	0	6
SUL	49	0	6	96	192	3
TAP	50	0	0
TAP	50	96	1
TAP	50	96	7
HLD	50	192	2	96
HLD	50	192	6	96
TAP	51	0	7
TAP	51	96	0
TAP	51	96	6
HLD	51	192	1	96
HLD	51	192	5	96
TAP	52	0	1
TAP	52	96	0
TAP	52	96	2
HLD	52	192	3	96
HLD	52	192	7	96
TAP	53	0	6
TAP	53	96	5
TAP	53	96	7
HLD	53	192	0	96
HLD	53	192	4	96
TAP	54	0	1
TAP	54	0	7
TAP	54	96	0
TAP	54	144	0
TAP	54	240	0
TAP	54	288	1
TAP	54	288	7
TAP	55	0	0
TAP	55	0	6
TAP	55	96	7
TAP	55	144	7
TAP	55	240	7
TAP	55	288	0
TAP	55	288	6
TAP	56	0	1
TAP	56	0	3
TAP	56	96	2
TAP	56	96	4
TAP	56	192	3
TAP	56	192	5
TAP	56	288	4
TAP	56	288	6
TAP	57	0	4
TAP	57	0	6
TAP	57	96	3
TAP	57	96	5
TAP	57	192	2
TAP	57	192	4
TAP	57	288	1
TAP	57	288	3
BST	58	0	1
SI_	58	0	1	96	192	4
BST	58	0	3
SI_	58	0	3	96	192	6
TAP	59	0	0
TAP	59	0	1
TAP	59	96	2
TAP	59	96	7
TAP	59	192	3
TAP	59	192	6
TAP	59	288	4
TAP	59	288	5
TAP	59	336	4
HLD	59	336	5	336
TAP	60	96	2
TAP	60	192	1
TAP	60	288	0
TAP	61	0	6
TAP	61	0	7
TAP	61	96	0
TAP	61	96	5
TAP	61	192	1
TAP	61	192	4
TAP	61	288	2
TAP	61	288	3
HLD	61	336	2	336
TAP	61	336	3
TAP	62	96	5
TAP	62	192	6
TAP	62	288	7
TAP	63	0	0
TAP	63	0	1
TAP	63	96	2
TAP	63	96	7
TAP	63	192	3
TAP	63	192	6
TAP	63	288	4
TAP	63	288	5
TAP	64	0	6
TAP	64	0	7
TAP	64	96	0
TAP	64	96	5
TAP	64	192	1
TAP	64	192	4
TAP	64	288	2
TAP	64	288	3
TAP	65	0	0
TAP	65	0	7
TAP	65	96	1
TAP	65	96	6
TAP	65	192	2
TAP	65	192	5
TAP	65	288	3
TAP	65	288	4
STR	65	336	3
SXR	65	336	3	96	240	0
STR	65	336	4
SXL	65	336	4	96	240	7
TAP	67	0	2
TAP	67	0	3
TAP	67	96	1
TAP	67	96	4
TAP	67	192	0
TAP	67	192	5
TAP	67	288	6
TAP	67	288	7
HLD	67	336	6	336
TAP	67	336	7
TAP	68	96	7
TAP	68	192	1
TAP	68	288	3
TAP	69	0	4
TAP	69	0	5
TAP	69	96	3
TAP	69	96	6
TAP	69	192	2
TAP	69	192	7
TAP	69	288	0
TAP	69	288	1
TAP	69	336	0
HLD	69	336	1	336
TAP	70	96	0
TAP	70	192	6
TAP	70	288	4
TAP	71	0	2
TAP	71	0	3
TAP	71	96	1
TAP	71	96	4
TAP	71	192	0
TAP	71	192	5
TAP	71	288	6
TAP	71	288	7
TAP	72	0	4
TAP	72	0	5
TAP	72	96	3
TAP	72	96	6
TAP	72	192	2
TAP	72	192	7
TAP	72	288	0
TAP	72	288	1
STR	72	336	0
SF_	72	336	0	96	240	4
TAP	72	336	1
TAP	74	0	1
TAP	74	0	3
TAP	74	96	2
TAP	74	96	4
TAP	74	192	3
TAP	74	192	5
TAP	74	288	4
TAP	74	288	6
TAP	75	0	4
TAP	75	48	3
TAP	75	96	2
TAP	75	240	0
TAP	75	240	1
TAP	75	288	0
TAP	75	288	1
TAP	76	0	3
TAP	76	48	4
TAP	76	96	5
TAP	76	240	6
TAP	76	240	7
TAP	76	288	6
TAP	76	288	7
TAP	77	0	0
TAP	77	48	7
TAP	77	96	6
TAP	77	240	4
TAP	77	240	5
TAP	77	288	4
TAP	77	288	5
TAP	78	0	7
TAP	78	48	0
TAP	78	96	1
TAP	78	240	2
TAP	78	240	3
TAP	78	288	2
TAP	78	288	3
HLD	79	0	0	96
HLD	79	96	1	96
HLD	79	192	2	96
TAP	79	288	3
HLD	80	0	7	96
HLD	80	96	6	96
HLD	80	192	5	96
TAP	80	288	4
HLD	81	0	2	96
HLD	81	96	3	96
HLD	81	192	4	96
TAP	81	288	5
TAP	82	0	4
TAP	82	0	6
TAP	82	96	3
TAP	82	96	5
TAP	82	192	2
TAP	82	192	4
TAP	82	288	1
TAP	82	288	3
TAP	83	0	3
TAP	83	48	4
TAP	83	96	5
TAP	83	240	6
TAP	83	240	7
TAP	83	288	6
TAP	83	288	7
TAP	84	0	4
TAP	84	48	3
TAP	84	96	2
TAP	84	240	0
TAP	84	240	1
TAP	84	288	0
TAP	84	288	1
TAP	85	0	7
TAP	85	48	0
TAP	85	96	1
TAP	85	240	2
TAP	85	240	3
TAP	85	288	2
TAP	85	288	3
TAP	86	0	0
TAP	86	48	7
TAP	86	96	6
TAP	86	240	4
TAP	86	240	5
TAP	86	288	4
TAP	86	288	5
HLD	87	0	7	96
HLD	87	96	6	96
HLD	87	192	5	96
TAP	87	288	4
HLD	88	0	0	96
HLD	88	96	1	96
HLD	88	192	2	96
TAP	88	288	3
HLD	89	0	5	96
HLD	89	96	4	96
HLD	89	192	3	96
STR	89	288	2
SXR	89	288	2	96	288	4
STR	91	0	4
SI_	91	0	4	96	96	1
SI_	91	0	4	96	96	7
TAP	91	288	2
TAP	91	288	6
STR	92	0	3
SI_	92	0	3	96	96	0
SI_	92	0	3	96	96	6
TAP	92	288	1
TAP	92	288	5
STR	93	0	4
SCL	93	0	4	96	96	1
SCR	93	0	4	96	96	7
TAP	93	288	3
TAP	93	288	5
STR	94	0	3
SCL	94	0	3	96	96	0
SCR	94	0	3	96	96	6
TAP	94	288	2
TAP	94	288	4
TAP	95	0	3
TAP	95	0	4
TAP	95	96	2
TAP	95	96	5
TAP	95	192	1
TAP	95	192	6
TAP	95	288	0
TAP	95	288	7
STR	95	336	0
SXL	95	336	0	96	288	3
STR	95	336	7
SXR	95	336	7	96	288	4

T_REC_TAP	367
T_REC_BRK	0
T_REC_XTP	0
T_REC_HLD	30
T_REC_XHO	0
T_REC_STR	40
T_REC_BST	2
T_REC_XST	0
T_REC_TTP	0
T_REC_THO	0
T_REC_SLD	46
T_REC_ALL	485
T_NUM_TAP	407
T_NUM_BRK	2
T_NUM_HLD	30
T_NUM_SLD	46
T_NUM_ALL	485
T_JUDGE_TAP	409
T_JUDGE_HLD	80
T_JUDGE_SLD	46
T_JUDGE_ALL	535
TTM_EACHPAIRS	143
TTM_SCR_TAP	203500
TTM_SCR_BRK	5200
TTM_SCR_HLD	30000
TTM_SCR_SLD	69000
TTM_SCR_ALL	307700
TTM_SCR_S	298300
TTM_SCR_SS	307500
TTM_RAT_ACV	10006

