VERSION	0.00.00	1.03.00
FES_MODE	0
BPM_DEF	160.000	160.000	160.000	160.000
MET_DEF	4	4
RESOLUTION	384
CLK_DEF	384
COMPATIBLE_CODE	MA2

BPM	0	0	160.000
MET	0	0	4	4

TAP	2	0	0
TAP	3	0	1
TAP	4	0	2
TAP	5	0	3
TAP	5	192	3
TAP	5	192	4
TAP	6	0	5
TAP	7	0	6
TAP	8	0	7
TAP	9	0	1
TAP	9	0	6
TAP	10	0	7
TAP	11	0	6
TAP	12	0	5
TAP	13	0	4
TAP	13	192	3
TAP	13	192	4
TAP	14	0	2
TAP	15	0	1
TAP	16	0	0
TAP	17	0	1
TAP	17	0	6
TAP	18	0	2
TAP	18	96	2
TAP	18	192	3
TAP	19	0	5
TAP	19	96	5
TAP	19	192	4
TAP	20	0	1
TAP	20	96	1
TAP	20	192	3
TAP	21	0	6
TAP	21	96	6
TAP	21	192	4
TAP	22	0	2
TAP	22	96	3
TAP	22	192	2
TAP	23	0	5
TAP	23	96	4
TAP	23	192	5
TAP	24	0	1
TAP	24	96	2
TAP	24	192	3
TAP	25	0	6
TAP	25	96	5
TAP	25	192	4
TAP	26	0	0
TAP	26	0	7
TAP	26	192	1
TAP	26	288	2
TAP	27	0	3
TAP	27	96	4
TAP	27	192	5
TAP	28	0	0
TAP	28	0	7
TAP	28	192	6
TAP	28	288	5
TAP	29	0	4
TAP	29	96	3
TAP	29	192	2
TAP	30	0	0
TAP	30	0	1
TAP	30	192	3
TAP	30	288	4
TAP	31	0	5
TAP	31	96	6
TAP	31	192	7
TAP	32	0	6
TAP	32	0	7
TAP	32	192	4
TAP	32	288	3
TAP	33	0	2
TAP	33	96	1
TAP	33	192	0
TAP	34	0	2
TAP	34	0	3
TAP	34	96	3
TAP	34	192	4
TAP	34	288	4
TAP	35	0	5
TAP	35	96	6
TAP	35	192	0
TAP	35	192	7
TAP	36	0	4
TAP	36	0	5
TAP	36	96	4
TAP	36	192	3
TAP	36	288	3
TAP	37	0	2
TAP	37	96	1
TAP	37	192	0
TAP	37	192	7
TAP	38	0	6
TAP	38	0	7
TAP	38	96	6
TAP	38	192	5
TAP	38	288	4
TAP	39	0	2
TAP	39	96	3
TAP	39	192	1
TAP	39	192	4
TAP	40	0	0
TAP	40	0	1
TAP	40	96	1
TAP	40	192	2
TAP	40	288	3
TAP	41	0	5
TAP	41	96	4
TAP	41	192	3
TAP	41	192	6
HLD	42	0	2	192
TAP	42	192	3
TAP	42	288	3
HLD	43	0	5	192
TAP	43	192	4
TAP	43	288	4
HLD	44	0	1	192
TAP	44	192	3
TAP	44	288	3
HLD	45	0	6	192
TAP	45	192	4
TAP	45	288	4
HLD	46	0	0	192
TAP	46	192	2
TAP	46	288	2
HLD	47	0	7	192
TAP	47	192	5
TAP	47	288	5
TAP	48	0	0
TAP	48	96	1
TAP	48	192	2
TAP	48	288	3
TAP	49	0	4
TAP	49	96	5
TAP	49	192	6
TAP	49	288	7
HLD	50	0	1	192
TAP	50	192	0
TAP	50	288	0
TAP	50	288	1
HLD	51	0	6	192
TAP	51	192	7
TAP	51	288	6
TAP	51	288	7
HLD	52	0	2	192
TAP	52	192	0
TAP	52	288	1
TAP	52	288	7
HLD	53	0	5	192
TAP	53	192	7
TAP	53	288	0
TAP	53	288	6
HLD	54	0	2	192
TAP	54	192	3
TAP	54	288	1
TAP	54	288	4
HLD	55	0	5	192
TAP	55	192	4
TAP	55	288	3
TAP	55	288	6
TAP	56	0	4
TAP	56	96	4
TAP	56	192	3
TAP	56	288	3
STR	57	0	3
SCL	57	0	3	96	192	0
STR	57	0	4
SCR	57	0	4	96	192	7
TAP	58	0	0
TAP	58	0	7
BRK	58	192	1
BRK	58	192	6
TAP	59	0	0
TAP	59	96	1
TAP	59	192	2
TAP	59	288	3
TAP	59	336	3
TAP	60	96	4
TAP	60	96	5
TAP	60	192	4
TAP	60	192	5
TAP	61	0	7
TAP	61	96	6
TAP	61	192	5
TAP	61	288	4
TAP	61	336	4
TAP	62	96	2
TAP	62	96	3
TAP	62	192	2
TAP	62	192	3
TAP	63	0	1
TAP	63	96	2
TAP	63	192	3
TAP	63	288	4
TAP	63	288	5
TAP	64	0	6
TAP	64	96	5
TAP	64	192	4
TAP	64	288	2
TAP	64	288	3
TAP	65	0	2
TAP	65	96	3
TAP	65	192	4
TAP	65	288	5
STR	65	336	5
SCR	65	336	5	96	240	2
TAP	67	0	2
TAP	67	96	3
TAP	67	192	4
TAP	67	288	5
TAP	67	336	5
TAP	68	96	6
TAP	68	192	0
TAP	68	192	7
TAP	68	288	1
TAP	68	288	6
TAP	69	0	5
TAP	69	96	4
TAP	69	192	3
TAP	69	288	2
TAP	69	336	2
TAP	70	96	1
TAP	70	192	0
TAP	70	192	7
TAP	70	288	1
TAP	70	288	6
TAP	71	0	2
TAP	71	0	5
TAP	71	96	4
TAP	71	192	3
TAP	71	288	5
TAP	71	336	5
TAP	72	96	3
TAP	72	192	4
TAP	72	288	2
STR	72	336	2
SCL	72	336	2	96	240	5
TAP	74	96	3
TAP	74	192	2
TAP	74	288	1
STR	74	336	1
SCL	74	336	1	96	240	6
TAP	76	96	4
TAP	76	192	5
TAP	76	288	6
STR	76	336	6
SCR	76	336	6	96	240	1
TAP	78	96	1
TAP	78	192	2
TAP	78	288	3
TAP	78	288	4
TAP	78	336	3
TAP	78	336	4
TAP	79	96	6
TAP	79	192	5
TAP	79	288	3
TAP	79	288	4
TAP	79	336	3
TAP	79	336	4
TAP	80	96	1
TAP	80	192	2
TAP	80	288	3
TAP	80	288	4
TAP	80	336	3
TAP	80	336	4
TAP	81	96	6
TAP	81	192	5
TAP	81	288	3
TAP	81	288	4
TAP	81	336	3
TAP	81	336	4
TAP	82	96	2
TAP	82	192	1
TAP	82	288	0
STR	82	336	0
SLR	82	336	0	96	240	4
TAP	84	96	5
TAP	84	192	6
TAP	84	288	7
STR	84	336	7
SLL	84	336	7	96	240	3
TAP	86	96	2
TAP	86	192	1
TAP	86	288	0
TAP	86	288	7
TAP	86	336	0
TAP	86	336	7
TAP	87	96	5
TAP	87	192	6
TAP	87	288	0
TAP	87	288	7
TAP	87	336	0
TAP	87	336	7
TAP	88	96	2
TAP	88	192	1
TAP	88	288	0
TAP	88	288	7
TAP	88	336	0
TAP	88	336	7
TAP	89	96	5
TAP	89	192	6
TAP	89	288	0
TAP	89	288	7
STR	89	336	0
SCR	89	336	0	96	240	3
STR	89	336	7
SCL	89	336	7	96	240	4
TAP	91	0	3
TAP	91	96	2
TAP	91	192	1
TAP	91	288	0
TAP	92	0	7
TAP	92	96	6
TAP	92	192	5
TAP	92	288	3
TAP	92	288	4
TAP	93	0	4
TAP	93	96	5
TAP	93	192	6
TAP	93	288	7
TAP	94	0	0
TAP	94	96	1
TAP	94	192	2
TAP	94	288	3
TAP	94	288	4
TAP	95	0	3
TAP	95	0	4
TAP	95	96	2
TAP	95	96	5
TAP	95	192	1
TAP	95	192	6
TAP	95	288	0
TAP	95	288	7
STR	95	336	0
SI_	95	336	0	96	288	3
SI_	95	336	0	96	288	5
TAP	95	336	7

T_REC_TAP	300
T_REC_BRK	2
T_REC_XTP	0
T_REC_HLD	12
T_REC_XHO	0
T_REC_STR	11
T_REC_BST	0
T_REC_XST	0
T_REC_TTP	0
T_REC_THO	0
T_REC_SLD	12
T_REC_ALL	337
T_NUM_TAP	311
T_NUM_BRK	2
T_NUM_HLD	12
T_NUM_SLD	12
T_NUM_ALL	337
T_JUDGE_TAP	313
T_JUDGE_HLD	48
T_JUDGE_SLD	12
T_JUDGE_ALL	373
TTM_EACHPAIRS	59
TTM_SCR_TAP	155500
TTM_SCR_BRK	5200
TTM_SCR_HLD	12000
TTM_SCR_SLD	18000
TTM_SCR_ALL	190700
TTM_SCR_S	184800
TTM_SCR_SS	190500
TTM_RAT_ACV	10010

