VERSION	0.00.00	1.03.00
FES_MODE	0
BPM_DEF	160.000	160.000	160.000	160.000
MET_DEF	4	4
RESOLUTION	384
CLK_DEF	384
COMPATIBLE_CODE	MA2

BPM	0	0	160.000
MET	0	0	4	4

HLD	2	0	0	384
HLD	4	0	7	384
TAP	6	0	0
TAP	7	0	1
TAP	8	0	2
TAP	9	0	3
HLD	10	0	4	384
HLD	12	0	3	384
TAP	14	0	4
TAP	15	0	5
TAP	16	0	6
BRK	17	0	7
STR	18	0	0
SI_	18	0	0	96	288	3
STR	20	0	7
SI_	20	0	7	96	288	4
STR	22	0	3
SI_	22	0	3	96	288	0
STR	24	0	4
SI_	24	0	4	96	288	7
TAP	26	0	2
TAP	26	0	3
TAP	26	192	2
TAP	27	0	3
TAP	27	192	4
TAP	28	0	4
TAP	28	0	5
TAP	28	192	5
TAP	29	0	4
TAP	29	192	3
TAP	30	0	2
TAP	30	0	4
TAP	30	192	2
TAP	31	0	3
TAP	31	192	4
TAP	32	0	3
TAP	32	0	5
TAP	32	192	5
TAP	33	0	4
TAP	33	192	3
TAP	34	0	0
TAP	34	0	1
TAP	34	192	1
TAP	35	0	0
TAP	35	192	7
TAP	36	0	6
TAP	36	0	7
TAP	36	192	6
TAP	37	0	7
TAP	37	192	0
TAP	38	0	1
TAP	38	0	7
TAP	38	192	1
TAP	39	0	0
TAP	39	192	7
TAP	40	0	0
TAP	40	0	6
TAP	40	192	6
TAP	41	0	7
TAP	41	192	0
HLD	42	0	0	192
TAP	43	0	1
TAP	43	192	1
HLD	44	0	2	192
TAP	45	0	3
TAP	45	192	3
HLD	46	0	4	192
TAP	47	0	5
TAP	47	192	5
HLD	48	0	6	192
TAP	49	0	7
BRK	49	192	7
STR	50	0	7
SI_	50	0	7	96	288	3
STR	52	0	0
SI_	52	0	0	96	288	4
TAP	54	0	6
TAP	54	192	5
TAP	55	0	4
TAP	55	192	3
TAP	56	0	2
TAP	56	192	1
HLD	57	0	0	192
TAP	58	0	7
BRK	58	192	7
TAP	59	0	0
TAP	59	96	0
TAP	59	192	0
TAP	60	0	1
TAP	60	96	1
TAP	60	192	1
TAP	61	0	2
TAP	61	96	2
TAP	61	192	2
TAP	62	0	3
TAP	62	96	3
TAP	62	192	3
TAP	63	0	4
TAP	63	96	4
TAP	63	192	4
TAP	64	0	5
TAP	64	96	5
TAP	64	192	5
TAP	65	0	6
TAP	65	96	6
TAP	65	192	6
HLD	66	0	7	192
TAP	67	0	6
TAP	67	96	6
TAP	67	192	6
TAP	68	0	5
TAP	68	96	5
TAP	68	192	5
TAP	69	0	4
TAP	69	96	4
TAP	69	192	4
TAP	70	0	3
TAP	70	96	3
TAP	70	192	3
TAP	71	0	2
TAP	71	96	2
TAP	71	192	2
TAP	72	0	1
TAP	72	96	1
TAP	72	192	1
HLD	73	0	0	192
TAP	74	0	0
TAP	74	0	7
BRK	74	192	0
BRK	74	192	7
STR	75	0	0
SI_	75	0	0	96	288	4
STR	77	0	7
SI_	77	0	7	96	288	3
TAP	79	0	0
TAP	79	192	1
TAP	80	0	2
TAP	80	192	3
TAP	81	0	4
TAP	81	192	5
TAP	82	0	6
TAP	82	192	7
STR	83	0	7
SI_	83	0	7	96	288	3
STR	85	0	0
SI_	85	0	0	96	288	4
TAP	87	0	7
TAP	87	192	6
TAP	88	0	5
TAP	88	192	4
TAP	89	0	3
TAP	89	192	2
HLD	90	0	1	192
STR	91	0	1
SI_	91	0	1	96	288	6
STR	93	0	5
SI_	93	0	5	96	288	2
TAP	95	0	1

T_REC_TAP	117
T_REC_BRK	5
T_REC_XTP	0
T_REC_HLD	12
T_REC_XHO	0
T_REC_STR	12
T_REC_BST	0
T_REC_XST	0
T_REC_TTP	0
T_REC_THO	0
T_REC_SLD	12
T_REC_ALL	158
T_NUM_TAP	129
T_NUM_BRK	5
T_NUM_HLD	12
T_NUM_SLD	12
T_NUM_ALL	158
T_JUDGE_TAP	134
T_JUDGE_HLD	64
T_JUDGE_SLD	12
T_JUDGE_ALL	210
TTM_EACHPAIRS	10
TTM_SCR_TAP	64500
TTM_SCR_BRK	13000
TTM_SCR_HLD	12000
TTM_SCR_SLD	18000
TTM_SCR_ALL	107500
TTM_SCR_S	103800
TTM_SCR_SS	107000
TTM_RAT_ACV	10046

