VERSION	0.00.00	1.03.00
FES_MODE	0
BPM_DEF	142.000	142.000	142.000	142.000
MET_DEF	4	4
RESOLUTION	384
CLK_DEF	384
COMPATIBLE_CODE	MA2

BPM	0	0	142.000
MET	0	0	4	4
MET	52	0	4	2
MET	52	192	4	4

TAP	1	0	3
TAP	1	96	3
TAP	1	192	4
TAP	1	288	4
TAP	2	0	5
TAP	2	96	5
TAP	2	192	6
HLD	2	288	6	1344
TAP	3	0	1
TAP	3	96	3
TAP	3	192	0
TAP	3	288	1
TAP	4	0	1
TAP	4	96	3
TAP	4	192	2
TAP	4	288	2
TAP	5	0	7
TAP	5	96	7
TAP	5	192	4
TAP	5	288	4
TAP	6	0	5
TAP	6	96	2
TAP	6	192	6
TAP	6	288	1
TAP	7	0	1
TAP	7	0	2
TAP	7	96	3
TAP	7	96	4
TAP	7	192	0
TAP	7	192	7
TAP	7	288	1
TAP	7	288	2
TAP	8	0	1
TAP	8	0	2
TAP	8	96	3
TAP	8	96	4
TAP	8	192	1
TAP	8	192	2
TAP	8	288	1
TAP	8	288	2
TAP	9	0	0
TAP	9	0	7
TAP	9	96	0
TAP	9	96	7
TAP	9	192	3
TAP	9	192	4
TAP	9	288	3
TAP	9	288	4
TAP	10	0	5
TAP	10	0	6
TAP	10	96	1
TAP	10	96	2
TAP	10	192	1
TAP	10	192	6
TAP	10	288	2
STR	10	288	5
SI_	10	288	5	96	48	2
STR	11	0	0
SI_	11	0	0	96	48	3
STR	11	96	4
SI_	11	96	4	96	48	7
STR	11	192	5
SI_	11	192	5	96	48	2
STR	11	288	6
SI_	11	288	6	96	48	1
STR	12	0	7
SI_	12	0	7	96	48	4
STR	12	96	6
SI_	12	96	6	96	48	1
STR	12	192	5
SI_	12	192	5	96	48	2
STR	12	288	4
SI_	12	288	4	96	48	7
STR	13	0	3
SI_	13	0	3	96	48	0
STR	13	96	7
SI_	13	96	7	96	48	4
STR	13	192	0
SI_	13	192	0	96	48	3
TAP	13	288	4
HLD	14	0	0	192
HLD	14	0	7	192
TAP	15	0	4
HLD	15	0	5	96
TAP	15	48	1
TAP	15	64	2
TAP	15	80	3
HLD	15	96	4	96
TAP	15	144	0
TAP	15	160	7
TAP	15	176	6
TAP	15	192	5
TAP	15	240	4
TAP	15	240	5
TAP	15	288	3
STR	15	288	6
SI_	15	288	6	96	48	1
TAP	15	336	2
TAP	15	336	7
STR	16	0	0
SI_	16	0	0	96	48	3
STR	16	96	4
SI_	16	96	4	96	48	7
STR	16	192	5
SI_	16	192	5	96	48	2
STR	16	288	6
SI_	16	288	6	96	48	1
STR	17	0	7
SI_	17	0	7	96	48	4
STR	17	96	6
SI_	17	96	6	96	48	1
STR	17	192	5
SI_	17	192	5	96	48	2
STR	17	288	4
SI_	17	288	4	96	48	7
STR	18	0	3
SI_	18	0	3	96	48	0
STR	18	96	7
SI_	18	96	7	96	48	4
STR	18	192	0
SI_	18	192	0	96	48	3
STR	18	288	2
SI_	18	288	2	96	48	5
STR	19	0	6
SI_	19	0	6	96	48	1
STR	19	96	2
SI_	19	96	2	96	48	5
STR	19	192	6
SI_	19	192	6	96	48	1
STR	19	288	5
SI_	19	288	5	96	48	2
STR	20	0	0
SI_	20	0	0	96	48	3
TAP	20	0	5
TAP	20	96	0
STR	20	96	4
SI_	20	96	4	96	48	7
TAP	20	192	4
STR	20	192	5
SI_	20	192	5	96	48	2
TAP	20	288	5
STR	20	288	6
SI_	20	288	6	96	48	1
TAP	21	0	6
STR	21	0	7
SI_	21	0	7	96	48	4
STR	21	96	6
SI_	21	96	6	96	48	1
TAP	21	96	7
STR	21	192	5
SI_	21	192	5	96	48	2
TAP	21	192	6
STR	21	288	4
SI_	21	288	4	96	48	7
TAP	21	288	5
STR	22	0	3
SI_	22	0	3	96	48	0
TAP	22	0	4
TAP	22	96	3
STR	22	96	7
SI_	22	96	7	96	48	4
STR	22	192	0
SI_	22	192	0	96	48	3
TAP	22	192	7
TAP	22	288	0
STR	22	288	2
SI_	22	288	2	96	48	5
TAP	23	0	2
STR	23	0	6
SUL	23	0	6	96	96	5
STR	23	96	5
SCL	23	96	5	96	96	7
TAP	23	192	7
STR	23	288	5
SI_	23	288	5	96	48	2
STR	24	0	0
SI_	24	0	0	96	48	3
HLD	24	96	5	96
BST	24	192	3
SV_	24	192	3	96	48	2
STR	24	288	3
SI_	24	288	3	96	48	6
STR	24	288	4
SI_	24	288	4	96	48	7
STR	25	0	3
SI_	25	0	3	96	48	0
SUL	25	0	3	96	48	7
STR	25	96	3
SI_	25	96	3	96	48	1
TAP	25	192	3
STR	25	192	4
SI_	25	192	4	96	48	6
SXR	25	192	4	96	48	2
STR	25	288	4
SI_	25	288	4	96	48	7
STR	26	0	3
SI_	26	0	3	96	48	0
STR	26	96	7
SI_	26	96	7	96	48	5
STR	26	192	3
SV_	26	192	3	96	48	4
STR	26	288	3
SI_	26	288	3	96	48	0
SUL	26	288	3	96	48	7
STR	27	0	3
SLR	27	0	3	96	48	7
STR	27	96	3
SI_	27	96	3	96	48	7
SXR	27	96	3	96	48	1
STR	27	192	3
SV_	27	192	3	96	48	5
STR	27	288	6
SI_	27	288	6	96	48	1
STR	28	0	0
SI_	28	0	0	96	48	3
STR	28	96	4
SI_	28	96	4	96	48	7
STR	28	192	6
SI_	28	192	6	96	48	1
STR	28	288	4
SV_	28	288	4	96	48	5
STR	29	0	3
SI_	29	0	3	96	48	6
STR	29	0	4
SI_	29	0	4	96	48	1
STR	29	96	4
SI_	29	96	4	96	48	0
SV_	29	96	4	96	48	7
STR	29	192	4
SI_	29	192	4	96	48	6
SXR	29	192	4	96	48	2
STR	29	288	4
SI_	29	288	4	96	48	7
STR	30	0	3
SI_	30	0	3	96	48	0
STR	30	96	7
SI_	30	96	7	96	48	4
STR	30	192	0
SI_	30	192	0	96	48	3
STR	30	192	7
SI_	30	192	7	96	48	2
TAP	30	288	0
TAP	30	288	7
BRK	31	0	1
BRK	31	0	5
HLD	32	0	2	96
TAP	32	0	3
TAP	32	48	6
TAP	32	64	5
TAP	32	80	4
HLD	32	96	3	96
TAP	32	144	7
TAP	32	160	0
TAP	32	176	1
TAP	32	192	2
TAP	32	240	2
TAP	32	240	3
TAP	32	288	1
TAP	32	288	4
TAP	32	336	0
TAP	32	336	5
TAP	33	0	6
TAP	33	0	7
TAP	33	48	6
TAP	33	96	5
TAP	33	96	7
TAP	33	144	1
TAP	33	192	0
HLD	33	192	2	96
TAP	33	240	6
TAP	33	256	5
TAP	33	272	4
TAP	33	288	3
TAP	33	336	1
TAP	33	336	4
TAP	34	0	5
TAP	34	0	7
TAP	34	48	0
TAP	34	96	0
TAP	34	96	2
TAP	34	144	6
HLD	34	192	5	96
TAP	34	192	7
TAP	34	240	1
TAP	34	256	2
TAP	34	272	3
TAP	34	288	4
TAP	34	336	3
TAP	34	336	6
TAP	35	0	0
TAP	35	0	2
TAP	35	48	7
TAP	35	96	5
TAP	35	96	7
TAP	35	144	1
TAP	35	192	0
HLD	35	192	2	96
TAP	35	240	6
TAP	35	256	5
TAP	35	272	4
TAP	35	288	3
TAP	35	336	1
TAP	35	336	4
TAP	36	0	6
TAP	36	0	7
TAP	36	48	5
TAP	36	96	0
TAP	36	96	1
TAP	36	144	2
TAP	36	192	6
TAP	36	192	7
TAP	36	240	4
HLD	36	264	4	72
BRK	36	336	3
TAP	37	0	6
TAP	37	0	7
TAP	37	48	0
TAP	37	96	0
TAP	37	96	2
TAP	37	144	6
HLD	37	192	5	96
TAP	37	192	7
TAP	37	240	1
TAP	37	256	2
TAP	37	272	3
TAP	37	288	4
TAP	37	336	3
TAP	37	336	6
TAP	38	0	0
TAP	38	0	2
TAP	38	48	7
TAP	38	96	5
TAP	38	96	7
TAP	38	144	1
TAP	38	192	0
HLD	38	192	2	96
TAP	38	240	6
TAP	38	256	5
TAP	38	272	4
TAP	38	288	3
TAP	38	336	1
TAP	38	336	4
TAP	39	0	5
TAP	39	0	7
TAP	39	48	0
TAP	39	96	0
TAP	39	96	2
TAP	39	144	6
HLD	39	192	5	96
TAP	39	192	7
TAP	39	240	1
TAP	39	256	2
TAP	39	272	3
TAP	39	288	4
TAP	39	336	3
TAP	39	336	6
TAP	40	0	4
HLD	40	0	5	144
TAP	40	48	6
TAP	40	96	7
TAP	40	144	0
STR	40	192	0
SI_	40	192	0	96	24	2
STR	40	216	0
SI_	40	216	0	96	24	3
STR	40	240	0
SI_	40	240	0	96	24	4
STR	40	264	0
SI_	40	264	0	96	24	5
TAP	41	0	2
TAP	41	24	2
TAP	41	72	1
TAP	41	72	4
TAP	41	120	6
TAP	41	120	7
TAP	41	168	0
TAP	41	168	5
STR	41	216	2
SCR	41	216	2	96	48	5
TAP	41	240	3
HLD	41	264	1	48
TAP	41	312	2
TAP	41	360	0
TAP	42	0	0
TAP	42	24	7
TAP	42	72	1
TAP	42	72	6
TAP	42	120	3
TAP	42	120	4
TAP	42	168	2
TAP	42	168	5
TAP	42	216	1
TAP	42	240	3
TAP	42	264	2
TAP	42	288	4
TAP	42	312	3
TAP	42	336	5
TAP	42	360	4
TAP	43	0	6
TAP	43	24	7
TAP	43	72	0
TAP	43	72	5
TAP	43	120	2
TAP	43	120	3
TAP	43	168	1
TAP	43	168	4
STR	43	216	6
SCR	43	216	6	96	48	1
TAP	43	240	7
HLD	43	264	5	48
TAP	43	312	6
TAP	43	360	4
TAP	44	0	4
TAP	44	24	3
TAP	44	72	1
TAP	44	72	6
TAP	44	120	3
TAP	44	120	4
TAP	44	168	0
TAP	44	168	7
TAP	44	216	0
TAP	44	216	1
TAP	44	240	2
TAP	44	240	7
TAP	44	264	3
TAP	44	264	6
TAP	44	312	6
TAP	44	312	7
TAP	44	336	0
TAP	44	336	5
TAP	44	360	1
TAP	44	360	4
TAP	45	0	2
TAP	45	96	2
TAP	45	192	3
TAP	45	288	3
TAP	46	0	4
STR	46	96	4
SCL	46	96	4	96	96	0
STR	46	192	0
SCL	46	192	0	96	48	6
SUR	46	192	0	96	128	1
TAP	47	0	5
TAP	47	96	5
TAP	47	192	4
TAP	47	288	4
TAP	48	0	3
STR	48	96	3
SCR	48	96	3	96	96	7
STR	48	192	7
SCR	48	192	7	96	48	1
SUL	48	192	7	96	128	6
TAP	49	0	2
TAP	49	96	2
TAP	49	96	3
TAP	49	192	5
TAP	49	288	4
TAP	49	288	5
TAP	50	0	2
TAP	50	96	1
TAP	50	96	3
TAP	50	192	5
TAP	50	288	4
TAP	50	288	6
TAP	51	0	3
TAP	51	96	2
TAP	51	96	4
TAP	51	192	1
TAP	51	192	5
STR	51	288	0
SCR	51	288	0	96	48	3
STR	51	288	6
SCL	51	288	6	96	48	3
HLD	52	192	3	96
TAP	52	192	4
TAP	52	240	7
TAP	52	256	6
TAP	52	272	5
HLD	52	288	4	96
TAP	52	336	0
TAP	52	352	1
TAP	52	368	2
TAP	53	0	3
TAP	53	48	3
TAP	53	48	4
STR	53	96	2
SI_	53	96	2	96	48	7
TAP	53	96	5
STR	53	144	6
SI_	53	144	6	96	48	1
STR	53	192	2
SI_	53	192	2	96	48	5
STR	53	240	6
SI_	53	240	6	96	48	3
STR	53	288	2
SI_	53	288	2	96	48	7
STR	53	336	6
SI_	53	336	6	96	48	1
STR	54	0	2
SCR	54	0	2	96	72	0
TAP	54	48	6
TAP	54	96	2
STR	54	192	5
SI_	54	192	5	96	48	7
TAP	54	240	0
STR	54	288	5
SI_	54	288	5	96	48	0
TAP	54	336	1
STR	55	0	5
SI_	55	0	5	96	48	1
TAP	55	48	2
STR	55	96	5
SI_	55	96	5	96	48	0
SI_	55	96	5	96	48	2
TAP	55	144	3
STR	55	192	5
SI_	55	192	5	96	48	3
TAP	55	288	5
STR	55	288	6
SI_	55	288	6	96	48	0
SI_	55	288	6	96	48	2
STR	56	0	6
SI_	56	0	6	96	48	3
TAP	56	96	6
STR	56	192	7
SI_	56	192	7	96	48	2
SI_	56	192	7	96	48	4
STR	56	240	7
SI_	56	240	7	96	48	3
TAP	57	0	1
TAP	57	48	2
TAP	57	48	3
STR	57	96	1
SCR	57	96	1	96	48	3
STR	57	96	4
SCR	57	96	4	96	48	0
TAP	57	144	5
STR	57	192	1
SV_	57	192	1	96	48	4
STR	57	192	4
SV_	57	192	4	96	48	1
STR	57	288	1
SCR	57	288	1	96	48	3
STR	57	288	4
SCR	57	288	4	96	48	0
TAP	58	0	1
TAP	58	0	4
STR	58	96	2
SI_	58	96	2	96	48	6
STR	58	96	6
SI_	58	96	6	96	48	2
STR	58	192	2
SCR	58	192	2	96	48	5
STR	58	192	6
SCR	58	192	6	96	48	1
TAP	59	0	1
TAP	59	0	6
TAP	59	48	2
TAP	59	48	5
STR	59	96	3
SSR	59	96	3	96	48	7
STR	59	96	4
SI_	59	96	4	96	48	7
TAP	59	144	2
TAP	59	144	5
STR	59	192	3
SI_	59	192	3	96	48	6
STR	59	192	4
SI_	59	192	4	96	48	1
TAP	59	288	3
TAP	59	288	4
STR	60	0	2
SI_	60	0	2	96	48	5
STR	60	0	6
SI_	60	0	6	96	48	1
TAP	60	96	2
TAP	60	96	6
STR	60	192	0
SI_	60	192	0	96	36	3
STR	60	192	3
SI_	60	192	3	96	36	0
STR	60	240	4
SI_	60	240	4	96	36	7
STR	60	240	7
SI_	60	240	7	96	36	4
BRK	61	96	3
BRK	61	96	7
HLD	61	192	0	288
HLD	61	192	4	288
TAP	62	144	1
TAP	62	144	5
HLD	62	192	2	240
HLD	62	192	6	240
TAP	63	96	1
TAP	63	96	5
TAP	63	144	0
TAP	63	144	4
HLD	63	192	3	192
HLD	63	192	7	192
TAP	64	48	0
TAP	64	48	4
TAP	64	96	1
TAP	64	96	5
TAP	64	144	2
TAP	64	144	6
HLD	64	192	3	192
HLD	64	192	7	192
TAP	65	48	3
TAP	65	48	7
TAP	65	96	7
TAP	65	108	6
TAP	65	120	5
TAP	65	132	4
TAP	65	144	7
TAP	65	156	0
TAP	65	168	1
TAP	65	180	2
BRK	65	192	7
TAP	65	240	4
TAP	65	288	0
TAP	65	336	5
TAP	66	0	1
TAP	66	48	6
TAP	66	96	2
TAP	66	144	3
TAP	66	144	7
BRK	66	192	0
BRK	66	192	4
TAP	66	240	4
TAP	66	288	0
TAP	66	336	5
TAP	67	0	1
TAP	67	48	6
TAP	67	96	2
TAP	67	144	3
TAP	67	144	7
BRK	67	192	0
BRK	67	192	4
TAP	67	240	4
TAP	67	288	0
TAP	67	336	1
TAP	67	336	5
BRK	68	0	2
BRK	68	0	6
TAP	68	48	7
TAP	68	96	3
TAP	68	144	0
TAP	68	144	4
BRK	68	192	1
BRK	68	192	5
TAP	68	240	2
TAP	68	240	6
TAP	68	288	3
TAP	68	288	7
TAP	68	336	0
TAP	68	336	4
STR	69	0	0
SI_	69	0	0	96	24	2
STR	69	24	0
SI_	69	24	0	96	24	3
STR	69	48	0
SI_	69	48	0	96	24	4
STR	69	72	0
SI_	69	72	0	96	24	5
TAP	69	192	3
TAP	69	240	2
TAP	69	288	1
TAP	69	288	3
TAP	69	336	5
TAP	70	0	4
HLD	70	0	6	96
TAP	70	48	2
TAP	70	64	1
TAP	70	80	0
TAP	70	96	7
TAP	70	144	0
TAP	70	144	5
TAP	70	192	1
TAP	70	192	3
TAP	70	240	4
TAP	70	288	4
TAP	70	288	6
TAP	70	336	2
HLD	71	0	1	96
TAP	71	0	3
TAP	71	48	5
TAP	71	64	6
TAP	71	80	7
TAP	71	96	0
TAP	71	144	2
TAP	71	144	7
TAP	71	192	4
TAP	71	192	6
TAP	71	240	3
TAP	71	288	1
TAP	71	288	3
TAP	71	336	5
TAP	72	0	4
HLD	72	0	6	96
TAP	72	48	2
TAP	72	64	1
TAP	72	80	0
TAP	72	96	7
TAP	72	144	0
TAP	72	144	5
TAP	72	192	2
TAP	72	192	3
TAP	72	240	0
TAP	72	288	4
TAP	72	288	5
TAP	72	336	7
TAP	73	0	2
TAP	73	0	3
TAP	73	48	0
HLD	73	72	0	72
BRK	73	144	7
TAP	73	192	2
TAP	73	192	3
TAP	73	240	4
TAP	73	288	4
TAP	73	288	6
TAP	73	336	2
HLD	74	0	1	96
TAP	74	0	3
TAP	74	48	5
TAP	74	64	6
TAP	74	80	7
TAP	74	96	0
TAP	74	144	2
TAP	74	144	7
TAP	74	192	4
TAP	74	192	6
TAP	74	240	3
TAP	74	288	1
TAP	74	288	3
TAP	74	336	5
TAP	75	0	4
HLD	75	0	6	96
TAP	75	48	2
TAP	75	64	1
TAP	75	80	0
TAP	75	96	7
TAP	75	144	0
TAP	75	144	5
TAP	75	192	1
TAP	75	192	3
TAP	75	240	4
TAP	75	288	4
TAP	75	288	6
TAP	75	336	2
HLD	76	0	1	96
TAP	76	0	3
TAP	76	48	5
TAP	76	64	6
TAP	76	80	7
TAP	76	96	0
TAP	76	144	2
TAP	76	144	7
TAP	76	192	0
HLD	76	192	1	144
TAP	76	240	3
TAP	76	288	5
TAP	76	336	7
STR	77	0	7
SI_	77	0	7	96	24	1
STR	77	24	7
SI_	77	24	7	96	24	2
STR	77	48	7
SI_	77	48	7	96	24	3
STR	77	72	7
SI_	77	72	7	96	24	4
STR	77	192	2
SV_	77	192	2	96	48	3
STR	77	288	4
SI_	77	288	4	96	48	7
STR	78	0	1
SUL	78	0	1	96	96	2
STR	78	96	2
SUR	78	96	2	96	96	1
STR	78	192	7
SI_	78	192	7	96	48	4
TAP	78	288	3
STR	79	0	0
SV_	79	0	0	96	48	2
STR	79	0	3
SV_	79	0	3	96	48	1
TAP	79	96	0
TAP	79	96	3
STR	79	192	2
SLR	79	192	2	96	48	7
STR	79	288	0
SI_	79	288	0	96	48	3
SI_	79	288	0	96	48	5
STR	80	0	0
SF_	80	0	0	96	48	4
STR	80	192	1
SV_	80	192	1	96	48	4
STR	80	192	5
SV_	80	192	5	96	48	0
STR	80	288	1
SI_	80	288	1	96	48	6
STR	80	288	5
SI_	80	288	5	96	48	2
STR	81	0	1
SV_	81	0	1	96	48	4
STR	81	0	5
SV_	81	0	5	96	48	0
TAP	81	96	1
TAP	81	96	5
STR	81	192	2
SV_	81	192	2	96	48	3
STR	81	288	4
SI_	81	288	4	96	48	7
STR	82	0	1
SUL	82	0	1	96	96	2
STR	82	96	2
SUR	82	96	2	96	96	1
STR	82	192	7
SI_	82	192	7	96	48	4
TAP	82	288	3
STR	83	0	0
SV_	83	0	0	96	48	2
STR	83	0	3
SV_	83	0	3	96	48	1
TAP	83	96	0
TAP	83	96	3
STR	83	192	2
SLR	83	192	2	96	48	7
STR	83	288	0
SI_	83	288	0	96	48	3
SI_	83	288	0	96	48	5
STR	84	0	0
SF_	84	0	0	96	48	4
STR	84	192	1
SV_	84	192	1	96	48	4
STR	84	192	5
SV_	84	192	5	96	48	0
STR	84	288	1
SI_	84	288	1	96	48	6
STR	84	288	5
SI_	84	288	5	96	48	2
STR	85	0	1
SV_	85	0	1	96	48	4
STR	85	0	5
SV_	85	0	5	96	48	0
TAP	85	96	1
TAP	85	96	5
BST	85	192	6
SI_	85	192	6	96	72	1
HLD	86	0	0	24

T_REC_TAP	461
T_REC_BRK	15
T_REC_XTP	0
T_REC_HLD	37
T_REC_XHO	0
T_REC_STR	160
T_REC_BST	2
T_REC_XST	0
T_REC_TTP	0
T_REC_THO	0
T_REC_SLD	175
T_REC_ALL	850
T_NUM_TAP	621
T_NUM_BRK	17
T_NUM_HLD	37
T_NUM_SLD	175
T_NUM_ALL	850
T_JUDGE_TAP	638
T_JUDGE_HLD	125
T_JUDGE_SLD	175
T_JUDGE_ALL	938
TTM_EACHPAIRS	180
TTM_SCR_TAP	310500
TTM_SCR_BRK	44200
TTM_SCR_HLD	37000
TTM_SCR_SLD	262500
TTM_SCR_ALL	654200
TTM_SCR_S	632950
TTM_SCR_SS	652500
TTM_RAT_ACV	10026

