VERSION	0.00.00	1.03.00
FES_MODE	0
BPM_DEF	142.000	142.000	142.000	142.000
MET_DEF	4	4
RESOLUTION	384
CLK_DEF	384
COMPATIBLE_CODE	MA2

BPM	0	0	142.000
MET	0	0	4	4
MET	52	0	4	2
MET	52	192	4	4

TAP	3	0	2
TAP	3	96	3
TAP	3	192	0
TAP	3	288	2
TAP	4	0	2
TAP	4	96	3
TAP	4	192	2
TAP	4	288	2
TAP	5	0	0
TAP	5	96	0
TAP	5	192	3
TAP	5	288	3
TAP	6	0	5
TAP	6	96	2
TAP	6	192	5
TAP	6	288	2
TAP	7	0	2
HLD	7	0	6	1440
TAP	7	96	3
TAP	7	192	0
TAP	7	288	2
TAP	8	0	2
TAP	8	96	3
TAP	8	192	2
TAP	8	288	2
TAP	9	0	0
TAP	9	96	0
TAP	9	192	3
TAP	9	288	3
TAP	10	0	5
TAP	10	96	2
TAP	10	192	5
TAP	10	288	2
TAP	11	0	1
TAP	11	0	2
TAP	11	96	3
TAP	11	96	4
TAP	11	192	0
TAP	11	192	7
TAP	11	288	1
TAP	11	288	2
TAP	12	0	1
TAP	12	0	2
TAP	12	96	3
TAP	12	96	4
TAP	12	192	1
TAP	12	192	2
TAP	12	288	1
TAP	12	288	2
TAP	13	0	0
TAP	13	0	7
TAP	13	96	0
TAP	13	96	7
TAP	13	192	3
TAP	13	192	4
TAP	13	288	3
TAP	13	288	4
HLD	14	0	0	288
HLD	14	0	7	288
TAP	15	0	0
TAP	15	0	7
TAP	15	96	1
TAP	15	96	6
TAP	15	192	2
TAP	15	192	5
TAP	15	288	3
TAP	15	288	4
TAP	16	0	1
TAP	16	0	2
TAP	16	96	3
TAP	16	96	4
TAP	16	192	0
TAP	16	192	7
TAP	16	288	1
TAP	16	288	2
TAP	17	0	1
TAP	17	0	2
TAP	17	96	3
TAP	17	96	4
TAP	17	192	1
TAP	17	192	2
TAP	17	288	1
TAP	17	288	2
TAP	18	0	0
TAP	18	0	7
TAP	18	96	0
TAP	18	96	7
TAP	18	192	3
TAP	18	192	4
TAP	18	288	3
TAP	18	288	4
TAP	19	0	5
TAP	19	0	6
TAP	19	96	1
TAP	19	96	2
TAP	19	192	5
TAP	19	192	6
TAP	19	288	1
TAP	19	288	2
HLD	20	0	1	48
HLD	20	0	2	48
HLD	20	96	3	48
HLD	20	96	4	48
HLD	20	192	0	48
HLD	20	192	7	48
HLD	20	288	1	48
HLD	20	288	2	48
HLD	21	0	1	48
HLD	21	0	2	48
HLD	21	96	3	48
HLD	21	96	4	48
HLD	21	192	1	48
HLD	21	192	2	48
HLD	21	288	1	48
HLD	21	288	2	48
HLD	22	0	0	48
HLD	22	0	7	48
HLD	22	96	0	48
HLD	22	96	7	48
HLD	22	192	3	48
HLD	22	192	4	48
HLD	22	288	3	48
HLD	22	288	4	48
TAP	23	0	5
STR	23	0	6
SCR	23	0	6	96	192	5
HLD	24	0	2	192
TAP	24	96	3
HLD	24	192	6	192
TAP	24	288	1
HLD	25	0	3	192
TAP	25	96	2
HLD	25	192	5	192
TAP	25	288	7
HLD	26	0	1	192
TAP	26	96	2
HLD	26	192	4	192
TAP	26	288	5
HLD	27	0	3	96
TAP	27	96	0
TAP	27	192	3
TAP	27	192	7
TAP	27	288	1
TAP	27	288	5
HLD	28	0	0	192
TAP	28	96	3
HLD	28	192	7	192
TAP	28	288	1
HLD	29	0	4	192
TAP	29	96	3
HLD	29	192	1	192
TAP	29	288	2
HLD	30	0	0	192
TAP	30	96	7
HLD	30	192	4	192
TAP	30	288	3
BRK	31	0	0
TAP	32	0	6
TAP	32	0	7
TAP	32	96	0
TAP	32	96	5
TAP	32	192	1
TAP	32	192	4
TAP	32	288	2
TAP	32	288	3
STR	33	0	7
SI_	33	0	7	96	48	4
TAP	33	48	0
TAP	33	96	1
TAP	33	144	2
HLD	33	192	3	72
HLD	33	264	2	72
TAP	33	336	1
STR	34	0	0
SI_	34	0	0	96	48	3
TAP	34	48	7
TAP	34	96	6
TAP	34	144	5
HLD	34	192	4	72
HLD	34	264	5	72
TAP	34	336	6
STR	35	0	7
SI_	35	0	7	96	48	4
TAP	35	48	0
TAP	35	96	1
TAP	35	144	2
HLD	35	192	3	72
HLD	35	264	2	72
TAP	35	336	1
STR	36	0	0
SI_	36	0	0	96	48	3
TAP	36	48	7
TAP	36	96	6
TAP	36	144	5
STR	36	192	4
SI_	36	192	4	96	48	1
SI_	36	192	4	96	48	7
STR	37	0	3
SCL	37	0	3	96	48	0
TAP	37	48	4
TAP	37	96	5
TAP	37	144	6
HLD	37	192	7	72
HLD	37	264	6	72
TAP	37	336	5
STR	38	0	4
SCR	38	0	4	96	48	7
TAP	38	48	3
TAP	38	96	2
TAP	38	144	1
HLD	38	192	0	72
HLD	38	264	1	72
TAP	38	336	2
STR	39	0	3
SCL	39	0	3	96	48	0
TAP	39	48	4
TAP	39	96	5
TAP	39	144	6
HLD	39	192	7	72
HLD	39	264	6	72
TAP	39	336	5
TAP	40	0	3
TAP	40	0	4
BRK	40	192	0
BRK	40	288	7
TAP	41	0	0
TAP	41	24	0
TAP	41	72	1
TAP	41	72	7
TAP	41	120	2
TAP	41	120	6
TAP	41	168	3
HLD	41	168	5	72
TAP	41	240	4
TAP	41	288	3
TAP	41	288	6
TAP	42	0	7
TAP	42	24	7
TAP	42	72	0
TAP	42	72	6
TAP	42	120	1
TAP	42	120	5
HLD	42	168	2	72
TAP	42	168	4
TAP	42	240	3
TAP	42	288	1
TAP	42	288	4
TAP	43	0	3
TAP	43	24	3
TAP	43	72	2
TAP	43	72	4
TAP	43	120	1
TAP	43	120	5
TAP	43	168	0
HLD	43	168	6	72
TAP	43	240	7
TAP	43	288	0
TAP	43	288	5
TAP	44	0	4
TAP	44	24	4
TAP	44	72	3
TAP	44	72	5
TAP	44	120	2
TAP	44	120	6
TAP	44	168	1
STR	44	168	7
SF_	44	168	7	96	48	3
TAP	45	0	4
TAP	45	96	4
TAP	45	192	4
TAP	45	288	4
TAP	46	0	4
STR	46	96	4
SLL	46	96	4	96	96	7
SLR	46	96	4	96	96	1
TAP	47	0	3
TAP	47	96	3
TAP	47	192	3
TAP	47	288	3
TAP	48	0	3
STR	48	96	3
SLL	48	96	3	96	96	6
SLR	48	96	3	96	96	0
STR	49	0	0
SI_	49	0	0	96	48	4
STR	49	192	7
SI_	49	192	7	96	48	3
STR	50	0	1
SI_	50	0	1	96	48	4
STR	50	192	6
SI_	50	192	6	96	48	3
TAP	51	0	0
TAP	51	96	1
TAP	51	192	2
TAP	51	288	3
BRK	52	0	3
BRK	52	0	4
TAP	52	192	0
TAP	52	192	1
TAP	52	288	2
TAP	52	288	7
TAP	53	0	3
TAP	53	0	6
TAP	53	96	4
TAP	53	96	5
HLD	53	192	3	672
TAP	53	192	7
TAP	53	288	6
TAP	54	0	5
TAP	54	96	4
TAP	54	192	2
TAP	54	240	2
TAP	54	288	4
TAP	54	336	4
TAP	55	0	2
TAP	55	48	2
HLD	55	96	4	768
TAP	55	192	3
TAP	55	288	2
TAP	56	0	1
TAP	56	96	0
TAP	56	192	7
TAP	56	240	7
TAP	56	288	1
TAP	56	336	1
TAP	57	0	0
TAP	57	48	0
HLD	57	96	0	768
TAP	57	192	4
TAP	57	288	5
TAP	58	0	6
TAP	58	96	7
TAP	58	192	1
TAP	58	240	1
TAP	58	288	7
TAP	58	336	7
TAP	59	0	1
TAP	59	48	1
HLD	59	96	7	672
TAP	59	192	1
TAP	59	288	5
TAP	60	0	2
TAP	60	96	4
HLD	60	192	3	192
BRK	61	96	1
BRK	61	96	5
HLD	61	192	3	192
HLD	61	192	7	192
TAP	62	144	2
TAP	62	144	6
HLD	62	192	1	192
HLD	62	192	5	192
TAP	63	96	0
TAP	63	96	4
TAP	63	144	1
TAP	63	144	5
HLD	63	192	2	192
HLD	63	192	6	192
TAP	64	48	3
TAP	64	48	7
TAP	64	96	2
TAP	64	96	6
TAP	64	144	1
TAP	64	144	5
HLD	64	192	0	96
HLD	64	192	4	96
TAP	65	0	2
TAP	65	0	5
TAP	65	48	2
TAP	65	48	5
TAP	65	96	3
TAP	65	120	4
TAP	65	144	3
TAP	65	168	4
TAP	65	192	3
TAP	65	288	2
TAP	65	288	3
TAP	66	0	4
TAP	66	96	4
TAP	66	96	5
TAP	66	192	2
TAP	66	240	2
TAP	66	288	1
TAP	66	288	3
TAP	67	0	5
TAP	67	48	5
TAP	67	96	4
TAP	67	96	6
TAP	67	192	1
TAP	67	240	1
TAP	67	288	0
TAP	67	336	0
TAP	68	0	7
TAP	68	48	7
TAP	68	96	6
TAP	68	144	6
TAP	68	192	0
TAP	68	192	7
TAP	68	240	0
TAP	68	240	7
TAP	68	288	1
TAP	68	288	6
TAP	68	336	1
TAP	68	336	6
TAP	69	0	0
TAP	69	24	7
TAP	69	48	0
TAP	69	72	7
TAP	69	96	0
TAP	69	120	7
TAP	69	144	0
TAP	69	168	7
STR	69	192	1
SI_	69	192	1	96	48	4
TAP	69	240	0
TAP	69	288	7
TAP	69	336	6
HLD	70	0	5	72
HLD	70	72	6	72
TAP	70	144	7
STR	70	192	6
SI_	70	192	6	96	48	3
TAP	70	240	7
TAP	70	288	0
TAP	70	336	1
HLD	71	0	2	72
HLD	71	72	1	72
TAP	71	144	0
STR	71	192	1
SI_	71	192	1	96	48	4
TAP	71	240	0
TAP	71	288	7
TAP	71	336	6
HLD	72	0	5	72
HLD	72	72	6	72
TAP	72	144	7
STR	72	192	6
SI_	72	192	6	96	48	3
TAP	72	240	7
TAP	72	288	0
TAP	72	336	1
STR	73	0	2
SCL	73	0	2	96	48	7
SCR	73	0	2	96	48	5
STR	73	192	5
SCR	73	192	5	96	48	0
TAP	73	240	4
TAP	73	288	3
TAP	73	336	2
HLD	74	0	1	72
HLD	74	72	2	72
TAP	74	144	3
STR	74	192	2
SCL	74	192	2	96	48	7
TAP	74	240	3
TAP	74	288	4
TAP	74	336	5
HLD	75	0	6	72
HLD	75	72	5	72
TAP	75	144	4
STR	75	192	5
SCR	75	192	5	96	48	0
TAP	75	240	4
TAP	75	288	3
TAP	75	336	2
HLD	76	0	1	72
HLD	76	72	2	72
TAP	76	144	3
TAP	76	192	3
TAP	76	192	4
BRK	77	0	0
BRK	77	96	7
TAP	77	192	1
STR	77	192	7
SI_	77	192	7	96	48	4
STR	77	288	3
SI_	77	288	3	96	48	0
STR	78	0	5
SI_	78	0	5	96	48	2
STR	78	96	6
SI_	78	96	6	96	48	1
STR	78	192	7
SI_	78	192	7	96	48	4
STR	78	288	6
SI_	78	288	6	96	48	1
STR	79	0	5
SI_	79	0	5	96	48	2
STR	79	96	3
SI_	79	96	3	96	48	0
STR	79	192	4
SI_	79	192	4	96	48	7
STR	79	288	0
SI_	79	288	0	96	48	3
STR	80	0	7
SI_	80	0	7	96	48	4
STR	80	96	2
SI_	80	96	2	96	48	5
STR	80	192	6
SI_	80	192	6	96	48	1
STR	80	288	2
SI_	80	288	2	96	48	5
STR	81	0	6
SI_	81	0	6	96	48	1
STR	81	96	5
SI_	81	96	5	96	48	2
STR	81	192	7
SI_	81	192	7	96	48	4
STR	81	288	3
SI_	81	288	3	96	48	0
STR	82	0	5
SI_	82	0	5	96	48	2
STR	82	96	6
SI_	82	96	6	96	48	1
STR	82	192	7
SI_	82	192	7	96	48	4
STR	82	288	6
SI_	82	288	6	96	48	1
STR	83	0	5
SI_	83	0	5	96	48	2
STR	83	96	3
SI_	83	96	3	96	48	0
STR	83	192	4
SI_	83	192	4	96	48	7
STR	83	288	0
SI_	83	288	0	96	48	3
STR	84	0	7
SI_	84	0	7	96	48	4
STR	84	96	2
SI_	84	96	2	96	48	5
STR	84	192	6
SI_	84	192	6	96	48	1
STR	84	288	2
SI_	84	288	2	96	48	5
STR	85	0	6
SI_	85	0	6	96	48	1
TAP	85	96	2
HLD	85	192	1	192
BRK	86	0	0

T_REC_TAP	333
T_REC_BRK	10
T_REC_XTP	0
T_REC_HLD	81
T_REC_XHO	0
T_REC_STR	55
T_REC_BST	0
T_REC_XST	0
T_REC_TTP	0
T_REC_THO	0
T_REC_SLD	59
T_REC_ALL	538
T_NUM_TAP	388
T_NUM_BRK	10
T_NUM_HLD	81
T_NUM_SLD	59
T_NUM_ALL	538
T_JUDGE_TAP	398
T_JUDGE_HLD	266
T_JUDGE_SLD	59
T_JUDGE_ALL	723
TTM_EACHPAIRS	98
TTM_SCR_TAP	194000
TTM_SCR_BRK	26000
TTM_SCR_HLD	81000
TTM_SCR_SLD	88500
TTM_SCR_ALL	389500
TTM_SCR_S	376850
TTM_SCR_SS	388500
TTM_RAT_ACV	10025

