VERSION	0.00.00	1.03.00
FES_MODE	0
BPM_DEF	142.000	142.000	142.000	142.000
MET_DEF	4	4
RESOLUTION	384
CLK_DEF	384
COMPATIBLE_CODE	MA2

BPM	0	0	142.000
MET	0	0	4	4
MET	52	0	4	2
MET	52	192	4	4

TAP	3	0	1
TAP	3	96	3
TAP	3	96	4
TAP	3	192	0
TAP	3	192	7
TAP	3	288	1
TAP	4	0	1
TAP	4	96	3
TAP	4	96	4
TAP	4	192	1
TAP	4	288	1
TAP	5	0	0
TAP	5	0	7
TAP	5	96	0
TAP	5	96	7
TAP	5	192	3
TAP	5	192	4
TAP	5	288	3
TAP	5	288	4
TAP	6	0	6
TAP	6	96	1
TAP	6	192	6
TAP	6	288	1
TAP	7	0	1
TAP	7	96	3
TAP	7	96	4
TAP	7	192	0
TAP	7	192	7
TAP	7	288	1
TAP	8	0	1
TAP	8	96	3
TAP	8	96	4
TAP	8	192	1
TAP	8	288	1
TAP	9	0	0
TAP	9	0	7
TAP	9	96	0
TAP	9	96	7
TAP	9	192	3
TAP	9	192	4
TAP	9	288	3
TAP	9	288	4
TAP	10	0	6
TAP	10	96	1
TAP	10	192	6
TAP	10	288	1
TAP	11	0	1
TAP	11	96	3
TAP	11	96	4
TAP	11	192	0
TAP	11	192	7
TAP	11	288	1
TAP	12	0	1
TAP	12	96	3
TAP	12	96	4
TAP	12	192	1
TAP	12	288	1
TAP	13	0	0
TAP	13	0	7
TAP	13	96	0
TAP	13	96	7
TAP	13	192	3
TAP	13	192	4
TAP	13	288	3
TAP	13	288	4
HLD	14	0	0	384
HLD	14	0	7	384
TAP	16	0	1
TAP	16	96	3
TAP	16	96	4
TAP	16	192	0
TAP	16	192	7
TAP	16	288	2
TAP	17	0	2
TAP	17	96	3
TAP	17	96	4
TAP	17	192	1
TAP	17	288	1
TAP	18	0	0
TAP	18	0	7
TAP	18	96	0
TAP	18	96	7
TAP	18	192	3
TAP	18	192	4
TAP	18	288	3
TAP	18	288	4
TAP	19	0	5
TAP	19	96	2
TAP	19	192	5
TAP	19	288	2
TAP	20	0	2
TAP	20	96	3
TAP	20	96	4
TAP	20	192	0
TAP	20	192	7
TAP	20	288	1
TAP	21	0	1
TAP	21	96	3
TAP	21	96	4
TAP	21	192	2
TAP	21	288	2
TAP	22	0	0
TAP	22	0	7
TAP	22	96	0
TAP	22	96	7
TAP	22	192	3
TAP	22	192	4
TAP	22	288	3
TAP	22	288	4
STR	23	0	5
SUL	23	0	5	96	192	3
TAP	24	0	2
TAP	24	96	3
TAP	24	96	4
TAP	24	192	3
TAP	24	192	5
TAP	24	288	2
TAP	24	288	4
TAP	25	0	1
TAP	25	0	7
TAP	25	96	0
TAP	25	96	6
TAP	25	192	6
TAP	25	192	7
TAP	25	288	0
TAP	25	288	1
TAP	26	0	0
TAP	26	0	7
TAP	26	96	0
TAP	26	96	7
TAP	26	192	3
TAP	26	192	4
TAP	26	288	2
TAP	26	288	4
TAP	27	0	0
TAP	27	0	6
TAP	27	96	6
TAP	27	96	7
TAP	27	192	0
TAP	27	192	1
TAP	27	288	2
TAP	27	288	4
TAP	28	0	1
TAP	28	96	3
TAP	28	96	4
TAP	28	192	0
TAP	28	192	7
TAP	28	288	1
TAP	29	0	2
TAP	29	0	4
TAP	29	96	1
TAP	29	96	7
TAP	29	192	0
TAP	29	192	6
TAP	29	288	0
TAP	29	288	1
TAP	30	0	0
TAP	30	0	7
TAP	30	96	0
TAP	30	96	7
TAP	30	192	3
TAP	30	192	4
BRK	30	288	0
BRK	30	288	7
TAP	33	0	2
TAP	33	96	3
TAP	33	192	2
TAP	33	192	3
TAP	33	288	1
TAP	33	288	4
TAP	34	0	5
TAP	34	96	4
TAP	34	96	5
TAP	34	192	3
TAP	34	192	6
TAP	35	0	5
TAP	35	96	4
TAP	35	192	4
TAP	35	192	5
TAP	35	288	3
TAP	35	288	6
TAP	36	0	2
TAP	36	96	2
TAP	36	96	3
TAP	36	192	1
TAP	36	192	4
TAP	37	0	1
TAP	37	96	0
TAP	37	192	0
TAP	37	192	1
TAP	37	288	2
TAP	37	288	7
TAP	38	0	6
TAP	38	96	6
TAP	38	96	7
TAP	38	192	0
TAP	38	192	5
TAP	39	0	0
TAP	39	96	7
TAP	39	192	0
TAP	39	192	7
TAP	39	288	1
TAP	39	288	6
HLD	40	0	0	96
HLD	40	0	7	96
BRK	40	192	0
BRK	40	192	7
HLD	41	0	1	96
TAP	41	96	0
HLD	41	192	6	96
TAP	41	288	7
HLD	42	0	0	96
HLD	42	96	1	96
HLD	42	192	2	96
TAP	42	288	3
HLD	43	0	5	96
TAP	43	96	4
HLD	43	192	2	96
TAP	43	288	3
STR	44	0	3
SI_	44	0	3	96	144	0
STR	44	0	4
SI_	44	0	4	96	144	7
TAP	45	0	7
TAP	45	96	7
TAP	45	192	6
TAP	45	288	6
STR	46	0	4
SI_	46	0	4	96	144	1
TAP	46	0	5
TAP	47	0	0
TAP	47	96	0
TAP	47	192	1
TAP	47	288	1
TAP	48	0	2
STR	48	0	3
SI_	48	0	3	96	144	6
HLD	49	0	6	96
HLD	49	0	7	96
HLD	49	192	0	96
HLD	49	192	1	96
HLD	50	0	4	96
HLD	50	0	5	96
HLD	50	192	2	96
HLD	50	192	3	96
TAP	51	0	3
TAP	51	0	4
TAP	51	96	3
TAP	51	96	4
TAP	51	192	2
TAP	51	192	5
STR	51	288	2
SI_	51	288	2	96	96	0
STR	51	288	5
SI_	51	288	5	96	96	7
HLD	53	192	2	48
HLD	53	192	3	48
HLD	53	288	2	48
HLD	53	288	3	48
HLD	54	0	4	48
HLD	54	0	5	48
HLD	54	96	4	48
HLD	54	96	5	48
TAP	54	192	2
TAP	54	240	2
TAP	54	288	2
TAP	54	288	3
TAP	55	0	5
TAP	55	48	5
TAP	55	96	4
TAP	55	96	5
TAP	55	192	4
TAP	55	192	5
TAP	55	288	3
TAP	55	288	4
TAP	56	0	2
TAP	56	0	3
TAP	56	96	1
TAP	56	96	2
TAP	56	192	1
TAP	56	240	1
TAP	56	288	0
TAP	56	288	1
TAP	57	0	6
TAP	57	48	6
TAP	57	96	6
TAP	57	96	7
HLD	57	192	0	48
HLD	57	192	1	48
HLD	57	288	6	48
HLD	57	288	7	48
HLD	58	0	0	48
HLD	58	0	1	48
HLD	58	96	6	48
HLD	58	96	7	48
BRK	58	192	7
BRK	58	288	0
TAP	59	0	0
TAP	59	48	0
TAP	59	96	7
TAP	59	144	7
TAP	59	192	2
TAP	59	288	1
TAP	59	288	3
TAP	60	0	5
TAP	60	96	4
TAP	60	96	6
TAP	60	192	1
TAP	60	288	0
TAP	60	288	2
BRK	61	0	3
BRK	61	0	7
HLD	61	192	0	192
HLD	61	192	7	192
HLD	62	192	0	192
HLD	62	192	1	192
HLD	63	192	6	192
HLD	63	192	7	192
STR	64	192	0
SI_	64	192	0	96	144	3
STR	64	192	7
SI_	64	192	7	96	144	4
HLD	65	192	2	192
TAP	65	288	3
TAP	66	0	3
HLD	66	192	5	192
TAP	66	288	4
TAP	67	0	4
HLD	67	192	6	192
TAP	67	288	7
TAP	68	0	7
HLD	68	192	0	96
HLD	68	192	7	96
BRK	69	0	0
BRK	69	0	7
TAP	69	192	5
TAP	69	288	4
TAP	70	0	4
TAP	70	0	5
TAP	70	96	3
TAP	70	96	6
TAP	70	192	2
TAP	70	288	2
TAP	70	288	3
TAP	71	0	1
TAP	71	0	4
TAP	71	96	1
TAP	71	96	4
TAP	71	192	2
TAP	71	288	3
TAP	72	0	2
TAP	72	0	3
TAP	72	96	1
TAP	72	96	4
TAP	72	192	5
TAP	72	288	4
TAP	72	288	5
TAP	73	0	3
TAP	73	0	6
TAP	73	96	2
TAP	73	96	7
TAP	73	192	6
TAP	73	288	7
TAP	74	0	6
TAP	74	0	7
TAP	74	96	0
TAP	74	96	5
TAP	74	192	1
TAP	74	288	0
TAP	75	0	0
TAP	75	0	1
TAP	75	96	2
TAP	75	96	7
TAP	75	192	7
TAP	75	288	0
TAP	76	0	0
TAP	76	0	7
TAP	76	96	1
TAP	76	96	6
HLD	76	192	3	96
HLD	76	192	4	96
BRK	77	0	2
BRK	77	0	5
TAP	77	192	1
TAP	77	192	2
TAP	77	288	3
TAP	77	288	4
TAP	78	0	0
TAP	78	0	7
TAP	78	96	1
TAP	78	96	2
TAP	78	192	1
TAP	78	192	2
TAP	78	288	3
TAP	78	288	4
TAP	79	0	1
TAP	79	0	2
TAP	79	96	1
TAP	79	96	2
TAP	79	192	0
TAP	79	192	7
TAP	79	288	0
TAP	79	288	7
TAP	80	0	3
TAP	80	0	4
TAP	80	96	3
TAP	80	96	4
TAP	80	192	5
TAP	80	192	6
TAP	80	288	1
TAP	80	288	2
TAP	81	0	5
TAP	81	0	6
TAP	81	96	1
TAP	81	96	2
HLD	81	192	1	48
HLD	81	192	2	48
HLD	81	288	3	48
HLD	81	288	4	48
HLD	82	0	0	48
HLD	82	0	7	48
HLD	82	96	1	48
HLD	82	96	2	48
HLD	82	192	1	48
HLD	82	192	2	48
HLD	82	288	3	48
HLD	82	288	4	48
HLD	83	0	1	48
HLD	83	0	2	48
HLD	83	96	1	48
HLD	83	96	2	48
HLD	83	192	0	48
HLD	83	192	7	48
HLD	83	288	0	48
HLD	83	288	7	48
HLD	84	0	3	48
HLD	84	0	4	48
HLD	84	96	3	48
HLD	84	96	4	48
HLD	84	192	5	48
HLD	84	192	6	48
HLD	84	288	1	48
HLD	84	288	2	48
HLD	85	0	5	48
HLD	85	0	6	48
HLD	85	96	1	48
HLD	85	96	2	48
BRK	85	192	5
BST	85	192	6
SI_	85	192	6	96	144	1

T_REC_TAP	337
T_REC_BRK	13
T_REC_XTP	0
T_REC_HLD	80
T_REC_XHO	0
T_REC_STR	9
T_REC_BST	1
T_REC_XST	0
T_REC_TTP	0
T_REC_THO	0
T_REC_SLD	10
T_REC_ALL	450
T_NUM_TAP	346
T_NUM_BRK	14
T_NUM_HLD	80
T_NUM_SLD	10
T_NUM_ALL	450
T_JUDGE_TAP	360
T_JUDGE_HLD	142
T_JUDGE_SLD	10
T_JUDGE_ALL	512
TTM_EACHPAIRS	165
TTM_SCR_TAP	173000
TTM_SCR_BRK	36400
TTM_SCR_HLD	80000
TTM_SCR_SLD	15000
TTM_SCR_ALL	304400
TTM_SCR_S	293950
TTM_SCR_SS	303000
TTM_RAT_ACV	10046

