VERSION	0.00.00	1.03.00
FES_MODE	0
BPM_DEF	142.000	142.000	142.000	142.000
MET_DEF	4	4
RESOLUTION	384
CLK_DEF	384
COMPATIBLE_CODE	MA2

BPM	0	0	142.000
MET	0	0	4	4
MET	52	0	4	2
MET	52	192	4	4

TAP	3	0	1
TAP	3	0	2
TAP	4	0	1
TAP	4	0	2
TAP	5	0	0
TAP	5	0	7
TAP	6	0	5
TAP	6	0	6
TAP	7	0	1
TAP	7	0	2
TAP	8	0	1
TAP	8	0	2
TAP	9	0	0
TAP	9	0	7
TAP	10	0	5
TAP	10	0	6
TAP	11	0	1
TAP	11	0	2
TAP	12	0	1
TAP	12	0	2
TAP	13	0	0
TAP	13	0	7
HLD	14	0	0	384
HLD	14	0	7	384
TAP	16	0	0
TAP	16	96	0
TAP	16	192	0
TAP	17	0	1
TAP	17	96	1
TAP	17	192	1
TAP	18	0	2
TAP	18	96	2
TAP	18	192	2
TAP	19	0	3
TAP	19	96	3
TAP	19	192	3
TAP	20	0	4
TAP	20	96	4
TAP	20	192	4
TAP	21	0	5
TAP	21	96	5
TAP	21	192	5
TAP	22	0	6
TAP	22	96	6
TAP	22	192	6
TAP	23	0	0
TAP	23	0	7
TAP	23	192	0
TAP	23	192	7
TAP	24	0	7
TAP	24	96	7
TAP	24	192	6
TAP	25	0	6
TAP	25	96	6
TAP	25	192	5
TAP	26	0	5
TAP	26	96	5
TAP	26	192	4
TAP	27	0	4
TAP	27	96	4
TAP	27	192	3
TAP	28	0	3
TAP	28	96	3
TAP	28	192	2
TAP	29	0	2
TAP	29	96	2
TAP	29	192	1
TAP	30	0	1
TAP	30	96	1
TAP	30	192	0
BRK	31	0	0
BRK	31	0	7
TAP	33	0	0
TAP	33	96	0
TAP	33	192	0
TAP	33	192	1
TAP	34	0	7
TAP	34	96	7
TAP	34	192	6
TAP	34	192	7
TAP	35	0	0
TAP	35	96	0
TAP	35	192	0
TAP	35	192	1
HLD	36	0	0	192
HLD	36	0	7	192
TAP	37	0	6
TAP	37	96	6
TAP	37	192	6
TAP	37	192	7
TAP	38	0	1
TAP	38	96	1
TAP	38	192	0
TAP	38	192	1
TAP	39	0	6
TAP	39	96	6
TAP	39	192	6
TAP	39	192	7
TAP	40	0	0
TAP	40	0	7
TAP	40	96	0
TAP	40	96	7
BRK	40	192	1
BRK	40	192	6
STR	41	0	0
SI_	41	0	0	96	288	4
STR	43	0	7
SI_	43	0	7	96	288	3
TAP	45	0	0
TAP	45	192	0
TAP	46	0	0
TAP	46	192	0
TAP	46	192	7
TAP	47	0	7
TAP	47	192	7
TAP	48	0	7
TAP	48	192	0
TAP	48	192	7
TAP	49	0	0
TAP	49	0	1
TAP	49	192	0
TAP	49	192	1
TAP	50	0	2
TAP	50	0	3
TAP	50	192	2
TAP	50	192	3
TAP	51	0	4
TAP	51	0	5
TAP	51	192	4
TAP	51	192	5
BRK	52	0	6
BRK	52	0	7
TAP	53	192	7
TAP	53	288	7
TAP	54	0	7
TAP	54	96	7
TAP	54	192	6
TAP	54	288	6
TAP	55	0	6
TAP	55	0	7
TAP	55	192	5
TAP	55	288	5
TAP	56	0	5
TAP	56	96	5
TAP	56	192	4
TAP	56	288	4
TAP	57	0	3
TAP	57	0	4
TAP	57	192	3
TAP	57	288	3
TAP	58	0	3
TAP	58	96	3
TAP	58	192	2
TAP	58	288	2
TAP	59	0	2
TAP	59	0	3
TAP	59	192	1
TAP	59	288	1
TAP	60	0	1
TAP	60	96	1
TAP	60	192	0
TAP	60	288	0
BRK	61	0	0
BRK	61	0	7
TAP	61	192	6
TAP	61	192	7
TAP	61	288	6
TAP	61	288	7
TAP	62	0	0
TAP	62	0	5
TAP	62	192	0
TAP	62	192	1
TAP	62	288	0
TAP	62	288	1
TAP	63	0	2
TAP	63	0	7
TAP	63	192	6
TAP	63	192	7
TAP	63	288	6
TAP	63	288	7
TAP	64	0	0
TAP	64	0	5
TAP	64	192	0
TAP	64	288	0
TAP	65	0	1
TAP	65	96	1
TAP	65	192	2
TAP	65	192	3
TAP	65	288	2
TAP	65	288	3
TAP	66	0	1
TAP	66	0	4
TAP	66	192	4
TAP	66	192	5
TAP	66	288	4
TAP	66	288	5
TAP	67	0	3
TAP	67	0	6
TAP	67	192	2
TAP	67	192	3
TAP	67	288	2
TAP	67	288	3
TAP	68	0	1
TAP	68	0	4
TAP	68	192	4
TAP	68	192	5
TAP	68	288	4
TAP	68	288	5
BRK	69	0	3
BRK	69	0	6
TAP	69	192	2
TAP	69	288	2
TAP	70	0	1
TAP	70	96	1
TAP	70	192	0
TAP	70	288	0
TAP	71	0	7
TAP	71	96	7
TAP	71	192	6
TAP	71	288	6
TAP	72	0	5
TAP	72	96	5
TAP	72	192	4
TAP	72	288	4
TAP	73	0	3
TAP	73	0	4
TAP	73	192	4
TAP	73	288	4
TAP	74	0	5
TAP	74	96	5
TAP	74	192	6
TAP	74	288	6
TAP	75	0	7
TAP	75	96	7
TAP	75	192	0
TAP	75	288	0
TAP	76	0	1
TAP	76	96	1
TAP	76	192	2
TAP	76	288	2
BRK	77	0	3
BRK	77	0	4
TAP	77	192	1
TAP	77	192	2
TAP	77	288	1
TAP	77	288	2
TAP	78	192	1
TAP	78	192	2
TAP	78	288	1
TAP	78	288	2
TAP	79	192	0
TAP	79	192	7
TAP	79	288	0
TAP	79	288	7
TAP	80	192	5
TAP	80	192	6
TAP	80	288	5
TAP	80	288	6
TAP	81	192	1
TAP	81	192	2
TAP	81	288	1
TAP	81	288	2
TAP	82	192	1
TAP	82	192	2
TAP	82	288	1
TAP	82	288	2
TAP	83	192	0
TAP	83	192	7
TAP	83	288	0
TAP	83	288	7
TAP	84	192	5
TAP	84	192	6
TAP	84	288	5
TAP	84	288	6
BRK	85	192	3
BRK	85	192	4

T_REC_TAP	254
T_REC_BRK	14
T_REC_XTP	0
T_REC_HLD	4
T_REC_XHO	0
T_REC_STR	2
T_REC_BST	0
T_REC_XST	0
T_REC_TTP	0
T_REC_THO	0
T_REC_SLD	2
T_REC_ALL	276
T_NUM_TAP	256
T_NUM_BRK	14
T_NUM_HLD	4
T_NUM_SLD	2
T_NUM_ALL	276
T_JUDGE_TAP	270
T_JUDGE_HLD	24
T_JUDGE_SLD	2
T_JUDGE_ALL	296
TTM_EACHPAIRS	78
TTM_SCR_TAP	128000
TTM_SCR_BRK	36400
TTM_SCR_HLD	4000
TTM_SCR_SLD	3000
TTM_SCR_ALL	171400
TTM_SCR_S	164900
TTM_SCR_SS	170000
TTM_RAT_ACV	10082

