VERSION	0.00.00	1.03.00
FES_MODE	0
BPM_DEF	243.000	243.000	243.000	243.000
MET_DEF	4	4
RESOLUTION	384
CLK_DEF	384
COMPATIBLE_CODE	MA2

BPM	0	0	243.000
MET	0	0	4	4

TAP	2	0	4
TAP	3	0	5
TAP	4	0	6
TAP	5	0	7
STR	6	0	0
SCL	6	0	0	96	48	6
SCR	6	0	0	96	48	2
STR	6	192	4
SI_	6	192	4	96	48	0
STR	6	288	1
SCR	6	288	1	96	48	3
STR	7	0	7
SCL	7	0	7	96	48	5
TAP	7	192	3
TAP	7	288	4
STR	8	0	5
SI_	8	0	5	96	48	2
SI_	8	0	5	96	48	7
STR	8	192	1
SI_	8	192	1	96	48	3
SI_	8	192	1	96	48	6
STR	9	0	4
SI_	9	0	4	96	48	1
SI_	9	0	4	96	48	6
STR	9	192	0
SI_	9	192	0	96	48	2
SI_	9	192	0	96	48	5
STR	10	0	7
SCL	10	0	7	96	48	5
SCR	10	0	7	96	48	1
STR	10	192	3
SI_	10	192	3	96	48	7
STR	10	288	6
SCL	10	288	6	96	48	4
STR	11	0	0
SCR	11	0	0	96	48	2
TAP	11	192	4
TAP	11	288	3
STR	12	0	2
SI_	12	0	2	96	48	0
SI_	12	0	2	96	48	5
STR	12	192	6
SI_	12	192	6	96	48	1
SI_	12	192	6	96	48	4
STR	13	0	3
SI_	13	0	3	96	48	1
SI_	13	0	3	96	48	6
STR	13	192	7
SI_	13	192	7	96	48	2
SI_	13	192	7	96	48	5
STR	14	0	3
SCL	14	0	3	96	48	0
STR	14	0	4
SCR	14	0	4	96	48	7
STR	14	192	5
SI_	14	192	5	96	48	1
STR	14	288	4
SCL	14	288	4	96	48	2
STR	15	0	6
SCR	15	0	6	96	48	0
STR	15	192	2
SI_	15	192	2	96	48	6
STR	15	288	3
SCR	15	288	3	96	48	5
STR	16	0	1
SCL	16	0	1	96	48	7
STR	16	192	4
SF_	16	192	4	96	48	0
STR	17	0	3
SF_	17	0	3	96	48	7
TAP	17	192	2
TAP	17	192	5
BST	18	0	1
SCR	18	0	1	96	192	7
BST	18	0	6
SCL	18	0	6	96	192	0
STR	19	0	1
SI_	19	0	1	96	48	4
STR	19	0	6
SI_	19	0	6	96	48	3
STR	19	192	2
SI_	19	192	2	96	48	7
STR	19	192	5
SI_	19	192	5	96	48	0
HLD	20	0	5	96
TAP	20	96	4
TAP	20	144	5
TAP	20	192	3
TAP	20	192	6
TAP	20	288	0
TAP	20	288	1
TAP	21	0	2
TAP	21	48	3
TAP	21	96	4
TAP	21	144	5
TAP	21	192	6
STR	21	192	7
SI_	21	192	7	96	48	3
HLD	22	0	2	96
TAP	22	96	3
TAP	22	144	2
TAP	22	192	1
TAP	22	192	4
TAP	22	288	6
TAP	22	288	7
TAP	23	0	5
TAP	23	48	4
TAP	23	96	3
TAP	23	144	2
STR	23	192	0
SI_	23	192	0	96	48	4
TAP	23	192	1
TAP	24	0	6
TAP	24	0	7
TAP	24	96	5
TAP	24	144	4
TAP	24	192	2
STR	24	192	3
SI_	24	192	3	96	48	7
TAP	24	288	2
TAP	25	0	0
TAP	25	0	1
TAP	25	96	2
TAP	25	144	3
STR	25	192	4
SI_	25	192	4	96	48	0
TAP	25	192	5
TAP	25	288	5
TAP	26	0	1
TAP	26	0	6
TAP	26	96	2
TAP	26	144	2
TAP	26	192	7
TAP	26	216	6
TAP	26	240	5
TAP	26	288	3
TAP	27	0	0
TAP	27	24	1
TAP	27	48	2
TAP	27	96	6
TAP	27	120	5
TAP	27	144	4
TAP	27	192	2
TAP	27	216	3
TAP	27	240	4
BRK	27	288	7
STR	28	0	1
SI_	28	0	1	96	48	4
TAP	28	0	5
STR	28	96	7
SI_	28	96	7	96	48	5
STR	28	192	0
SI_	28	192	0	96	48	4
STR	28	288	7
SI_	28	288	7	96	48	3
STR	29	0	1
SI_	29	0	1	96	48	5
STR	29	96	6
SI_	29	96	6	96	48	3
TAP	29	192	2
TAP	29	288	0
TAP	29	336	0
TAP	30	0	3
STR	30	0	6
SI_	30	0	6	96	48	3
STR	30	96	1
SI_	30	96	1	96	48	5
STR	30	192	7
SI_	30	192	7	96	48	3
STR	30	288	0
SI_	30	288	0	96	48	5
STR	31	0	6
SI_	31	0	6	96	48	2
STR	31	96	0
SI_	31	96	0	96	48	3
TAP	31	192	6
TAP	31	240	6
TAP	31	288	6
TAP	31	336	3
STR	32	0	1
SI_	32	0	1	96	48	5
TAP	32	0	5
STR	32	96	7
SI_	32	96	7	96	48	4
STR	32	192	0
SI_	32	192	0	96	48	4
STR	32	288	7
SI_	32	288	7	96	48	3
STR	33	0	1
SI_	33	0	1	96	48	5
STR	33	96	6
SI_	33	96	6	96	48	3
TAP	33	192	2
TAP	33	288	0
TAP	33	336	0
TAP	34	0	5
TAP	34	48	7
TAP	34	96	5
TAP	34	144	2
TAP	34	192	0
TAP	34	240	2
TAP	34	288	7
TAP	34	336	7
TAP	35	0	1
TAP	35	48	1
TAP	35	96	6
TAP	35	144	6
TAP	35	192	0
TAP	35	192	7
TAP	35	240	0
TAP	35	240	7
TAP	35	288	0
TAP	35	288	7
TAP	36	0	2
STR	36	0	6
SI_	36	0	6	96	48	3
STR	36	96	0
SI_	36	96	0	96	48	2
STR	36	192	7
SI_	36	192	7	96	48	3
STR	36	288	0
SI_	36	288	0	96	48	4
STR	37	0	6
SI_	37	0	6	96	48	2
STR	37	96	1
SI_	37	96	1	96	48	4
TAP	37	192	5
TAP	37	288	7
TAP	37	336	7
STR	38	0	1
SI_	38	0	1	96	48	4
TAP	38	0	4
STR	38	96	6
SI_	38	96	6	96	48	2
STR	38	192	0
SI_	38	192	0	96	48	4
STR	38	288	7
SI_	38	288	7	96	48	2
STR	39	0	1
SI_	39	0	1	96	48	5
STR	39	96	7
SI_	39	96	7	96	48	4
TAP	39	192	1
TAP	39	240	1
TAP	39	288	1
TAP	39	336	4
TAP	40	0	2
STR	40	0	6
SI_	40	0	6	96	48	2
STR	40	96	0
SI_	40	96	0	96	48	3
STR	40	192	7
SI_	40	192	7	96	48	3
STR	40	288	0
SI_	40	288	0	96	48	4
STR	41	0	6
SI_	41	0	6	96	48	2
STR	41	96	1
SI_	41	96	1	96	48	4
TAP	41	192	5
TAP	41	288	7
TAP	41	336	7
TAP	42	0	2
TAP	42	48	1
TAP	42	96	2
TAP	42	144	5
TAP	42	192	6
TAP	42	240	5
TAP	42	288	0
TAP	42	336	0
TAP	43	0	6
TAP	43	48	6
TAP	43	96	1
TAP	43	144	1
TAP	43	192	0
TAP	43	192	7
TAP	43	240	0
TAP	43	240	7
TAP	43	288	0
TAP	43	288	7
STR	44	0	1
SI_	44	0	1	96	48	3
TAP	44	0	3
TAP	44	96	1
TAP	44	96	4
STR	44	192	1
SI_	44	192	1	96	48	5
TAP	44	192	5
TAP	44	288	1
TAP	44	288	6
STR	45	0	1
SI_	45	0	1	96	48	7
TAP	45	0	7
TAP	45	96	1
TAP	45	96	6
TAP	45	192	1
TAP	45	192	5
TAP	45	288	7
TAP	45	336	7
TAP	46	0	4
STR	46	0	6
SI_	46	0	6	96	48	4
TAP	46	96	3
TAP	46	96	6
TAP	46	192	2
STR	46	192	6
SI_	46	192	6	96	48	2
TAP	46	288	1
TAP	46	288	6
TAP	47	0	0
STR	47	0	6
SI_	47	0	6	96	48	0
TAP	47	96	1
TAP	47	96	6
TAP	47	192	2
TAP	47	192	6
TAP	47	240	0
TAP	47	288	0
TAP	47	336	0
STR	48	0	1
SI_	48	0	1	96	48	3
TAP	48	0	3
TAP	48	96	1
TAP	48	96	4
STR	48	192	1
SI_	48	192	1	96	48	5
TAP	48	192	5
TAP	48	288	1
TAP	48	288	6
STR	49	0	1
SI_	49	0	1	96	48	7
TAP	49	0	7
TAP	49	96	1
TAP	49	96	6
TAP	49	192	1
TAP	49	192	5
TAP	49	288	7
TAP	49	336	7
HLD	50	0	2	96
HLD	50	0	3	96
HLD	50	144	1	96
HLD	50	144	4	96
TAP	50	288	0
TAP	50	288	7
TAP	50	336	0
TAP	50	336	7
HLD	51	0	4	96
HLD	51	0	5	96
HLD	51	144	3	96
HLD	51	144	6	96
TAP	51	288	0
TAP	51	288	7
TAP	51	336	0
TAP	51	336	7
TAP	52	0	1
STR	52	0	3
SCR	52	0	3	96	96	6
TAP	52	96	2
TAP	52	192	2
TAP	52	288	2
TAP	53	0	5
STR	53	0	7
SCR	53	0	7	96	96	2
TAP	53	96	6
TAP	53	192	6
TAP	53	288	5
TAP	53	336	5
STR	54	0	4
SCL	54	0	4	96	96	1
TAP	54	0	6
TAP	54	96	5
TAP	54	192	5
TAP	54	288	5
TAP	55	0	0
TAP	55	0	2
TAP	55	96	2
TAP	55	144	2
TAP	55	192	1
TAP	55	192	3
TAP	55	288	4
TAP	55	288	6
STR	56	0	1
SI_	56	0	1	96	48	3
TAP	56	0	7
TAP	56	96	4
TAP	56	192	0
STR	56	192	6
SI_	56	192	6	96	48	4
TAP	56	288	3
STR	57	0	2
SI_	57	0	2	96	48	0
TAP	57	0	3
TAP	57	96	7
TAP	57	192	4
STR	57	192	5
SI_	57	192	5	96	48	7
TAP	57	288	0
TAP	57	336	0
TAP	58	0	2
TAP	58	0	3
TAP	58	96	1
TAP	58	96	5
TAP	58	192	4
TAP	58	192	5
TAP	58	288	2
TAP	58	288	6
TAP	59	0	0
TAP	59	0	4
TAP	59	48	0
TAP	59	48	4
TAP	59	96	1
TAP	59	96	5
TAP	59	144	1
TAP	59	144	5
TAP	59	192	2
TAP	59	192	6
TAP	59	240	2
TAP	59	240	6
TAP	59	288	3
TAP	59	288	7
TAP	59	336	3
TAP	59	336	7
TAP	60	0	0
STR	60	0	4
SXL	60	0	4	96	384	7
HLD	61	96	3	96
HLD	61	192	2	96
HLD	61	288	1	96
STR	62	0	0
SXL	62	0	0	96	384	3
HLD	63	288	7	96
STR	64	0	6
SXL	64	0	6	96	384	1
HLD	65	192	4	96
HLD	65	288	3	96
STR	66	0	2
SSL	66	0	2	96	192	6
TAP	67	0	3
TAP	67	0	4
BRK	67	192	1
BRK	67	192	6
TAP	68	0	0
STR	68	48	0
SCR	68	48	0	96	48	2
STR	68	144	0
SI_	68	144	0	96	48	4
TAP	68	144	4
TAP	68	240	5
TAP	68	288	5
TAP	69	0	6
STR	69	48	6
SI_	69	48	6	96	48	2
TAP	69	144	1
STR	69	192	1
SI_	69	192	1	96	48	4
TAP	69	288	5
STR	70	0	7
SI_	70	0	7	96	48	3
TAP	70	96	1
STR	70	144	1
SCR	70	144	1	96	48	3
STR	70	240	1
SI_	70	240	1	96	48	5
TAP	70	240	5
TAP	70	336	7
TAP	71	48	6
STR	71	96	6
SCL	71	96	6	96	48	4
TAP	71	192	3
STR	71	192	6
SI_	71	192	6	96	48	2
TAP	71	288	1
TAP	72	0	0
STR	72	48	0
SCR	72	48	0	96	48	2
STR	72	144	0
SI_	72	144	0	96	48	4
TAP	72	144	3
TAP	72	240	6
TAP	72	288	6
TAP	72	336	6
TAP	73	48	4
STR	73	96	4
SI_	73	96	4	96	48	6
STR	73	192	1
SI_	73	192	1	96	48	3
TAP	73	288	7
STR	73	336	7
SCL	73	336	7	96	144	1
BRK	74	192	0
HLD	74	288	2	96
HLD	74	288	5	96
TAP	75	48	0
TAP	75	48	7
TAP	75	144	1
TAP	75	192	6
TAP	75	240	2
TAP	75	288	5
TAP	75	336	3
TAP	76	0	6
STR	76	48	6
SCL	76	48	6	96	48	3
TAP	76	144	0
STR	76	192	0
SCR	76	192	0	96	48	3
TAP	76	288	7
STR	76	336	7
SI_	76	336	7	96	48	3
STR	77	48	1
SI_	77	48	1	96	48	5
TAP	77	144	6
STR	77	192	6
SI_	77	192	6	96	48	3
TAP	77	288	2
TAP	78	48	0
TAP	78	48	7
TAP	78	96	0
TAP	78	96	7
TAP	78	144	1
STR	78	144	6
SCL	78	144	6	96	48	4
TAP	78	240	3
STR	78	240	6
SI_	78	240	6	96	48	2
TAP	78	336	2
TAP	79	48	1
STR	79	96	1
SCR	79	96	1	96	48	3
STR	79	192	1
SI_	79	192	1	96	48	5
TAP	79	192	4
TAP	79	288	5
TAP	80	0	7
STR	80	48	7
SCL	80	48	7	96	48	5
TAP	80	144	4
STR	80	144	7
SI_	80	144	7	96	48	3
TAP	80	240	1
TAP	80	288	1
TAP	80	336	1
TAP	81	48	5
TAP	81	48	7
HLD	81	192	3	48
HLD	81	192	4	48
HLD	81	264	2	48
HLD	81	264	5	48
STR	81	336	1
SI_	81	336	1	96	48	4
STR	81	336	6
SI_	81	336	6	96	48	3
TAP	82	48	1
TAP	82	48	6
TAP	82	192	0
TAP	82	192	7
HLD	82	288	2	96
HLD	82	288	5	96
TAP	83	48	3
TAP	83	96	4
TAP	83	144	2
TAP	83	192	5
TAP	83	240	1
TAP	83	288	6
TAP	83	336	0
TAP	84	0	5
STR	84	0	7
SSR	84	0	7	96	192	3
TAP	84	96	6
TAP	84	192	6
TAP	84	288	6
TAP	85	0	1
TAP	85	0	3
TAP	85	96	4
TAP	85	96	5
TAP	85	192	7
TAP	85	240	7
TAP	85	288	7
TAP	85	336	7
STR	86	0	0
SSL	86	0	0	96	192	4
TAP	86	0	2
TAP	86	96	1
TAP	86	192	1
TAP	86	288	1
TAP	87	0	4
TAP	87	0	6
TAP	87	96	2
TAP	87	96	3
TAP	87	192	0
TAP	87	192	7
TAP	87	240	0
TAP	87	240	7
TAP	87	288	0
TAP	87	288	7
TAP	88	0	4
TAP	88	48	4
TAP	88	96	3
TAP	88	144	3
TAP	88	192	5
TAP	88	240	5
TAP	88	288	2
TAP	88	336	2
TAP	89	0	6
TAP	89	48	6
TAP	89	96	1
TAP	89	144	1
TAP	89	192	7
TAP	89	240	7
TAP	89	288	0
TAP	89	336	0
TAP	90	0	7
TAP	90	24	6
TAP	90	48	5
TAP	90	72	4
TAP	90	96	0
TAP	90	120	1
TAP	90	144	2
TAP	90	168	3
TAP	90	192	6
TAP	90	216	5
TAP	90	240	4
TAP	90	264	3
TAP	90	288	1
TAP	90	312	2
TAP	90	336	3
TAP	90	360	4
TAP	91	0	6
TAP	91	24	5
TAP	91	48	4
TAP	91	72	3
TAP	91	96	2
TAP	91	96	6
TAP	91	120	1
TAP	91	144	0
TAP	91	168	7
TAP	91	192	2
TAP	91	192	6
BRK	91	288	0
BRK	91	288	7
STR	92	0	1
SI_	92	0	1	96	48	5
TAP	92	96	1
STR	92	96	6
SI_	92	96	6	96	48	3
STR	92	192	2
SI_	92	192	2	96	48	7
TAP	92	192	6
TAP	92	288	2
STR	92	288	5
SI_	92	288	5	96	48	1
STR	93	0	0
SI_	93	0	0	96	48	4
TAP	93	0	5
STR	93	96	0
SI_	93	96	0	96	48	2
STR	93	96	7
SI_	93	96	7	96	48	3
TAP	93	192	0
TAP	93	192	7
TAP	93	288	5
TAP	93	336	5
STR	94	0	2
SI_	94	0	2	96	48	7
TAP	94	0	7
TAP	94	96	2
STR	94	96	5
SI_	94	96	5	96	48	2
STR	94	192	0
SI_	94	192	0	96	48	5
TAP	94	192	5
TAP	94	288	0
STR	94	288	4
SI_	94	288	4	96	48	0
STR	95	0	2
SI_	95	0	2	96	48	0
TAP	95	0	4
TAP	95	96	2
TAP	95	192	3
TAP	95	192	5
TAP	95	240	4
TAP	95	288	2
TAP	95	288	4
TAP	95	336	3
STR	96	0	6
SI_	96	0	6	96	48	2
STR	96	96	1
SI_	96	96	1	96	48	4
TAP	96	96	6
TAP	96	192	1
STR	96	192	5
SI_	96	192	5	96	48	0
STR	96	288	2
SI_	96	288	2	96	48	5
TAP	96	288	5
TAP	97	0	2
STR	97	0	7
SI_	97	0	7	96	48	3
STR	97	96	0
SI_	97	96	0	96	48	4
STR	97	96	7
SI_	97	96	7	96	48	5
TAP	97	192	0
TAP	97	192	7
TAP	97	288	2
TAP	97	336	2
TAP	98	0	0
TAP	98	0	5
TAP	98	48	6
TAP	98	96	6
TAP	98	144	2
TAP	98	144	7
TAP	98	192	1
TAP	98	240	1
TAP	98	288	2
TAP	98	288	5
TAP	98	336	2
TAP	98	336	5
STR	99	0	3
SI_	99	0	3	96	48	1
STR	99	0	4
SI_	99	0	4	96	48	6
TAP	99	96	3
TAP	99	96	4
TAP	99	192	0
TAP	99	192	7
TAP	99	216	1
TAP	99	216	6
TAP	99	240	2
TAP	99	240	5
BRK	99	288	2
BRK	99	288	5
STR	100	0	1
SI_	100	0	1	96	48	5
TAP	100	0	5
TAP	100	96	1
STR	100	96	6
SI_	100	96	6	96	48	3
STR	100	192	2
SI_	100	192	2	96	48	7
TAP	100	192	6
TAP	100	288	2
STR	100	288	5
SI_	100	288	5	96	48	1
STR	101	0	0
SI_	101	0	0	96	48	4
TAP	101	0	5
STR	101	96	0
SI_	101	96	0	96	48	2
STR	101	96	7
SI_	101	96	7	96	48	3
TAP	101	192	0
TAP	101	192	7
TAP	101	288	5
TAP	101	336	5
TAP	102	0	2
STR	102	0	7
SI_	102	0	7	96	48	2
STR	102	96	1
SI_	102	96	1	96	48	4
STR	102	192	1
SI_	102	192	1	96	48	6
STR	102	192	5
SI_	102	192	5	96	48	2
TAP	102	288	1
TAP	102	288	5
TAP	103	0	3
TAP	103	0	7
TAP	103	48	3
TAP	103	48	7
STR	103	96	1
SI_	103	96	1	96	48	4
STR	103	96	5
SI_	103	96	5	96	48	0
TAP	103	192	1
TAP	103	192	5
TAP	103	288	3
TAP	103	288	7
TAP	103	312	2
TAP	103	312	6
TAP	103	336	1
TAP	103	336	5
STR	104	0	3
SI_	104	0	3	96	48	6
STR	104	0	7
SI_	104	0	7	96	48	2
TAP	104	96	3
TAP	104	96	7
TAP	104	192	1
TAP	104	192	5
TAP	104	240	1
TAP	104	240	5
TAP	104	288	1
TAP	104	288	5
TAP	105	0	3
TAP	105	0	7
TAP	105	48	3
TAP	105	48	7
TAP	105	96	2
TAP	105	96	6
TAP	105	144	2
TAP	105	144	6
TAP	105	192	1
TAP	105	192	5
TAP	105	240	1
TAP	105	240	5
TAP	105	288	0
TAP	105	288	4
TAP	105	300	7
TAP	105	312	6
TAP	105	324	5
TAP	105	336	4
TAP	105	348	3
TAP	105	360	2
TAP	105	372	1
TAP	106	0	0
TAP	106	0	4
TAP	106	144	3
TAP	106	144	7
TAP	106	288	1
TAP	106	288	6
STR	107	0	3
SI_	107	0	3	96	48	1
STR	107	0	4
SI_	107	0	4	96	48	6
TAP	107	96	3
TAP	107	96	4
TAP	107	192	0
TAP	107	192	7
TAP	107	216	1
TAP	107	216	6
TAP	107	240	2
TAP	107	240	5
BRK	107	288	2
BRK	107	288	5
STR	108	0	6
SI_	108	0	6	96	48	3
STR	108	0	7
SI_	108	0	7	96	48	2
TAP	108	96	6
TAP	108	96	7
TAP	108	192	0
TAP	108	192	5
TAP	108	288	2
TAP	108	288	3
TAP	108	336	1
TAP	108	336	4
STR	109	0	0
SCR	109	0	0	96	48	3
TAP	109	0	5
TAP	109	96	6
TAP	109	144	6
TAP	109	192	5
TAP	109	192	7
TAP	109	288	2
TAP	109	288	5
TAP	109	336	1
TAP	109	336	6
STR	110	0	0
SI_	110	0	0	96	48	4
STR	110	0	7
SI_	110	0	7	96	48	3
TAP	110	96	0
TAP	110	96	7
STR	110	192	1
SI_	110	192	1	96	48	4
STR	110	192	6
SI_	110	192	6	96	48	3
TAP	110	288	1
TAP	110	288	6
TAP	111	0	1
TAP	111	0	6
TAP	111	48	7
TAP	111	96	7
TAP	111	144	7
STR	111	192	0
SI_	111	192	0	96	48	5
STR	111	192	1
SI_	111	192	1	96	48	4
TAP	111	288	0
TAP	111	288	1
TAP	112	0	2
TAP	112	0	7
TAP	112	96	4
TAP	112	96	5
TAP	112	144	3
TAP	112	144	6
TAP	112	192	2
STR	112	192	7
SCL	112	192	7	96	48	4
TAP	112	288	1
TAP	112	336	1
TAP	113	0	0
TAP	113	0	2
TAP	113	96	5
TAP	113	96	7
TAP	113	192	1
TAP	113	192	6
TAP	113	240	0
TAP	113	288	0
TAP	113	336	0
TAP	114	0	5
TAP	114	0	7
TAP	114	48	6
TAP	114	96	6
TAP	114	144	0
TAP	114	144	2
TAP	114	192	1
TAP	114	240	1
TAP	114	288	2
TAP	114	288	5
TAP	114	336	1
TAP	114	336	6
STR	115	0	0
SI_	115	0	0	96	48	2
STR	115	0	7
SI_	115	0	7	96	48	5
STR	115	96	0
SI_	115	96	0	96	48	4
STR	115	96	7
SI_	115	96	7	96	48	3
STR	115	192	0
SCR	115	192	0	96	48	2
STR	115	192	7
SCL	115	192	7	96	48	5
BRK	115	288	0
BRK	115	288	7
STR	116	0	6
SI_	116	0	6	96	48	3
TAP	116	48	6
STR	116	96	1
SI_	116	96	1	96	48	5
TAP	116	144	1
STR	116	192	7
SI_	116	192	7	96	48	3
TAP	116	240	7
TAP	116	288	2
TAP	116	336	2
TAP	117	0	4
TAP	117	48	4
TAP	117	96	1
TAP	117	96	5
TAP	117	144	1
TAP	117	144	5
TAP	117	192	3
TAP	117	240	3
TAP	117	288	2
TAP	117	288	6
TAP	117	336	2
TAP	117	336	6
STR	118	0	1
SI_	118	0	1	96	48	4
TAP	118	48	1
STR	118	96	6
SI_	118	96	6	96	48	2
TAP	118	144	6
STR	118	192	0
SI_	118	192	0	96	48	4
TAP	118	240	0
TAP	118	288	5
TAP	118	336	5
TAP	119	0	3
TAP	119	48	3
TAP	119	96	2
TAP	119	96	6
TAP	119	144	2
TAP	119	144	6
TAP	119	192	4
TAP	119	240	4
TAP	119	288	1
TAP	119	288	5
TAP	119	336	1
TAP	119	336	5
STR	120	0	0
SI_	120	0	0	96	48	4
TAP	120	48	0
STR	120	96	7
SI_	120	96	7	96	48	3
TAP	120	144	7
STR	120	192	1
SCR	120	192	1	96	48	4
TAP	120	240	1
STR	120	288	5
SCR	120	288	5	96	48	0
TAP	120	336	5
STR	121	0	3
SUL	121	0	3	96	48	7
TAP	121	48	3
STR	121	96	4
SUR	121	96	4	96	48	0
TAP	121	144	4
STR	121	192	2
SCL	121	192	2	96	48	7
TAP	121	240	2
STR	121	288	6
SCL	121	288	6	96	48	3
TAP	121	336	6
STR	122	0	2
SXR	122	0	2	96	48	0
TAP	122	48	2
STR	122	96	6
SXR	122	96	6	96	48	4
TAP	122	144	6
STR	122	192	1
SXL	122	192	1	96	48	3
TAP	122	240	1
STR	122	288	5
SXL	122	288	5	96	48	7
TAP	122	336	5
STR	123	0	3
SI_	123	0	3	96	48	1
TAP	123	48	3
STR	123	96	4
SI_	123	96	4	96	48	6
TAP	123	144	4
STR	123	192	3
SI_	123	192	3	96	48	7
TAP	123	240	3
STR	123	288	4
SI_	123	288	4	96	48	0
TAP	123	336	4
BST	124	0	3
SCL	124	0	3	96	1224	4
STR	127	168	0
SI_	127	168	0	96	48	4

T_REC_TAP	580
T_REC_BRK	12
T_REC_XTP	0
T_REC_HLD	24
T_REC_XHO	0
T_REC_STR	196
T_REC_BST	3
T_REC_XST	0
T_REC_TTP	0
T_REC_THO	0
T_REC_SLD	209
T_REC_ALL	1024
T_NUM_TAP	776
T_NUM_BRK	15
T_NUM_HLD	24
T_NUM_SLD	209
T_NUM_ALL	1024
T_JUDGE_TAP	791
T_JUDGE_HLD	24
T_JUDGE_SLD	209
T_JUDGE_ALL	1024
TTM_EACHPAIRS	219
TTM_SCR_TAP	388000
TTM_SCR_BRK	39000
TTM_SCR_HLD	24000
TTM_SCR_SLD	313500
TTM_SCR_ALL	764500
TTM_SCR_S	740150
TTM_SCR_SS	763000
TTM_RAT_ACV	10019

