VERSION	0.00.00	1.03.00
FES_MODE	0
BPM_DEF	243.000	243.000	243.000	243.000
MET_DEF	4	4
RESOLUTION	384
CLK_DEF	384
COMPATIBLE_CODE	MA2

BPM	0	0	243.000
MET	0	0	4	4

TAP	6	0	1
TAP	6	192	3
TAP	6	288	2
TAP	7	0	1
TAP	7	192	0
TAP	7	288	1
TAP	8	0	2
TAP	8	192	3
TAP	9	0	4
TAP	9	192	5
TAP	10	0	4
TAP	10	192	4
TAP	10	288	5
TAP	11	0	6
TAP	11	192	5
TAP	11	288	6
TAP	12	0	7
TAP	12	192	6
TAP	13	0	5
TAP	13	192	4
TAP	14	0	3
TAP	14	0	7
TAP	14	192	3
TAP	14	192	7
TAP	14	288	2
TAP	15	0	1
TAP	15	0	6
TAP	15	192	0
TAP	15	192	6
TAP	15	288	1
TAP	16	0	2
TAP	16	0	5
TAP	16	192	3
TAP	16	192	5
TAP	17	0	2
TAP	17	0	4
TAP	17	192	2
TAP	17	192	5
TAP	18	0	3
TAP	18	0	4
TAP	19	0	2
TAP	19	192	5
STR	20	0	3
SXR	20	0	3	96	384	3
STR	20	0	4
SXL	20	0	4	96	384	4
STR	22	0	2
SXR	22	0	2	96	480	4
STR	22	0	5
SXL	22	0	5	96	480	3
STR	24	0	1
SXR	24	0	1	96	480	4
STR	24	0	6
SXL	24	0	6	96	480	3
HLD	26	0	0	96
HLD	26	0	7	96
HLD	26	144	2	96
HLD	26	144	3	96
TAP	26	288	4
STR	26	288	5
SCR	26	288	5	96	192	2
BRK	27	288	0
BRK	27	288	7
TAP	28	0	2
TAP	28	0	3
TAP	28	96	2
TAP	28	96	3
TAP	28	192	4
TAP	28	192	5
TAP	28	288	4
TAP	28	288	5
TAP	29	0	1
TAP	29	0	3
TAP	29	96	4
TAP	29	96	5
TAP	29	192	1
TAP	29	192	3
TAP	29	288	2
TAP	29	336	3
TAP	30	0	4
TAP	30	0	5
TAP	30	96	4
TAP	30	96	5
TAP	30	192	2
TAP	30	192	3
TAP	30	288	2
TAP	30	288	3
TAP	31	0	4
TAP	31	0	6
TAP	31	96	5
TAP	31	96	7
TAP	31	192	0
TAP	31	240	1
TAP	31	288	2
TAP	31	336	3
TAP	32	0	4
TAP	32	0	5
TAP	32	96	4
TAP	32	96	5
TAP	32	192	2
TAP	32	192	3
TAP	32	288	2
TAP	32	288	3
TAP	33	0	4
TAP	33	0	6
TAP	33	96	2
TAP	33	96	3
TAP	33	192	4
TAP	33	192	6
TAP	33	288	5
TAP	33	336	4
HLD	34	0	2	96
HLD	34	0	3	96
HLD	34	144	5	96
HLD	34	144	6	96
TAP	34	288	0
TAP	34	288	1
TAP	35	0	2
TAP	35	0	7
STR	35	96	3
SCL	35	96	3	96	72	0
STR	35	96	6
SCL	35	96	6	96	72	3
TAP	36	0	4
TAP	36	0	5
TAP	36	96	4
TAP	36	96	5
TAP	36	192	2
TAP	36	192	3
TAP	36	288	2
TAP	36	288	3
TAP	37	0	4
TAP	37	0	6
TAP	37	96	2
TAP	37	96	3
TAP	37	192	4
TAP	37	192	6
TAP	37	288	5
TAP	37	336	4
TAP	38	0	2
TAP	38	0	3
TAP	38	96	2
TAP	38	96	3
TAP	38	192	4
TAP	38	192	5
TAP	38	288	4
TAP	38	288	5
TAP	39	0	1
TAP	39	0	3
TAP	39	96	0
TAP	39	96	2
TAP	39	192	7
TAP	39	240	6
TAP	39	288	5
TAP	39	336	4
TAP	40	0	2
TAP	40	0	3
TAP	40	96	2
TAP	40	96	3
TAP	40	192	4
TAP	40	192	5
TAP	40	288	4
TAP	40	288	5
TAP	41	0	1
TAP	41	0	3
TAP	41	96	4
TAP	41	96	5
TAP	41	192	1
TAP	41	192	3
TAP	41	288	2
TAP	41	336	3
HLD	42	0	4	96
HLD	42	0	5	96
HLD	42	144	1	96
HLD	42	144	2	96
TAP	42	288	6
TAP	42	288	7
TAP	43	0	0
TAP	43	0	5
STR	43	96	1
SCR	43	96	1	96	72	4
STR	43	96	4
SCR	43	96	4	96	72	7
TAP	44	0	1
TAP	44	0	2
TAP	44	96	3
TAP	44	96	4
TAP	44	192	0
TAP	44	192	2
TAP	44	288	3
TAP	44	288	4
TAP	45	0	5
TAP	45	0	6
TAP	45	96	3
TAP	45	96	4
TAP	45	192	5
TAP	45	192	7
TAP	45	288	3
TAP	45	288	4
TAP	46	0	6
TAP	46	48	6
TAP	46	96	6
TAP	46	144	6
STR	46	192	5
SI_	46	192	5	96	72	1
STR	46	192	7
SI_	46	192	7	96	72	2
HLD	47	48	0	96
HLD	47	48	3	96
TAP	47	192	0
TAP	47	192	3
TAP	47	288	4
TAP	47	288	7
TAP	48	0	5
TAP	48	0	6
TAP	48	96	3
TAP	48	96	4
TAP	48	192	5
TAP	48	192	7
TAP	48	288	3
TAP	48	288	4
TAP	49	0	1
TAP	49	0	2
TAP	49	96	3
TAP	49	96	4
TAP	49	192	0
TAP	49	192	2
TAP	49	288	3
TAP	49	288	4
STR	50	0	1
SCR	50	0	1	96	72	4
STR	50	144	6
SCR	50	144	6	96	72	1
STR	50	288	3
SCR	50	288	3	96	72	6
TAP	51	0	7
STR	51	96	7
SF_	51	96	7	96	96	3
TAP	52	0	2
STR	52	0	4
SI_	52	0	4	96	192	0
TAP	52	96	2
TAP	52	192	2
TAP	52	288	2
TAP	53	0	1
STR	53	0	3
SI_	53	0	3	96	192	7
TAP	53	96	1
TAP	53	192	1
TAP	53	288	1
STR	54	0	4
SI_	54	0	4	96	192	0
TAP	54	0	6
TAP	54	96	6
TAP	54	192	6
TAP	54	288	6
STR	55	0	3
SI_	55	0	3	96	192	7
TAP	55	0	5
TAP	55	96	5
TAP	55	192	5
TAP	55	288	5
STR	56	0	0
SI_	56	0	0	96	192	4
TAP	56	0	2
TAP	56	96	2
TAP	56	192	2
TAP	56	288	2
TAP	57	0	5
STR	57	0	7
SI_	57	0	7	96	192	3
TAP	57	96	5
TAP	57	192	5
TAP	57	288	5
STR	58	0	1
SI_	58	0	1	96	72	5
TAP	58	96	7
STR	58	192	6
SI_	58	192	6	96	72	2
TAP	58	288	0
STR	59	0	1
SSR	59	0	1	96	192	5
BRK	60	0	3
BRK	60	0	4
TAP	61	96	2
TAP	61	192	3
TAP	61	288	4
HLD	62	0	5	672
TAP	63	288	2
HLD	64	0	2	576
TAP	65	192	5
TAP	65	288	4
TAP	66	0	3
TAP	66	0	7
BST	67	0	0
SXL	67	0	0	96	192	7
BST	67	0	4
SXL	67	0	4	96	192	3
TAP	68	0	0
TAP	68	48	0
TAP	68	144	2
TAP	68	144	6
TAP	68	240	4
TAP	68	240	5
TAP	68	288	4
TAP	68	288	5
TAP	69	0	2
TAP	69	0	3
TAP	69	48	2
TAP	69	48	3
TAP	69	144	6
TAP	69	144	7
TAP	69	192	6
TAP	69	192	7
TAP	69	288	1
TAP	69	288	5
TAP	70	0	3
TAP	70	0	7
TAP	70	96	0
TAP	70	96	4
TAP	70	144	0
TAP	70	144	4
TAP	70	240	1
TAP	70	240	3
TAP	70	336	2
TAP	70	336	4
HLD	71	48	3	96
HLD	71	48	5	96
TAP	71	192	3
TAP	71	192	5
TAP	71	288	1
TAP	71	288	7
TAP	72	0	0
TAP	72	0	6
TAP	72	48	0
TAP	72	48	6
TAP	72	144	2
TAP	72	144	4
TAP	72	240	7
TAP	72	288	7
TAP	72	336	0
TAP	72	336	6
HLD	73	48	1	96
HLD	73	48	7	96
TAP	73	192	1
TAP	73	192	7
TAP	73	288	3
TAP	73	288	5
TAP	73	336	3
TAP	73	336	5
TAP	74	48	1
TAP	74	48	4
TAP	74	144	2
TAP	74	144	6
TAP	74	192	2
TAP	74	192	6
HLD	74	288	0	96
HLD	74	288	4	96
TAP	75	48	0
TAP	75	96	1
TAP	75	144	2
TAP	75	192	3
TAP	75	240	4
TAP	75	288	5
TAP	75	336	6
TAP	76	0	0
TAP	76	0	7
TAP	76	48	0
TAP	76	48	7
TAP	76	144	4
TAP	76	144	6
TAP	76	192	4
TAP	76	192	6
TAP	76	288	1
TAP	76	288	3
TAP	76	336	1
TAP	76	336	3
TAP	77	48	2
TAP	77	48	6
TAP	77	144	0
TAP	77	144	4
STR	77	192	0
SI_	77	192	0	96	72	3
STR	77	192	4
SI_	77	192	4	96	72	7
TAP	78	48	0
TAP	78	96	0
TAP	78	144	1
TAP	78	144	7
TAP	78	240	0
TAP	78	240	5
TAP	78	336	2
TAP	78	336	6
TAP	79	48	0
TAP	79	48	4
TAP	79	96	0
TAP	79	96	4
TAP	79	192	3
TAP	79	192	6
TAP	79	288	1
TAP	79	288	4
TAP	80	0	3
TAP	80	0	7
TAP	80	48	3
TAP	80	48	7
TAP	80	144	1
TAP	80	144	6
TAP	80	240	3
TAP	80	240	4
TAP	80	288	3
TAP	80	288	4
TAP	80	336	3
TAP	80	336	4
TAP	81	48	2
TAP	81	48	5
TAP	81	192	0
TAP	81	192	7
TAP	81	264	1
TAP	81	264	6
STR	81	336	2
SCL	81	336	2	96	288	5
STR	81	336	5
SCR	81	336	5	96	288	2
TAP	83	48	4
TAP	83	96	5
TAP	83	144	6
TAP	83	192	7
TAP	83	240	0
TAP	83	288	1
TAP	83	336	2
TAP	84	0	3
TAP	84	0	4
TAP	84	96	3
TAP	84	96	5
TAP	84	192	3
TAP	84	192	6
TAP	84	288	3
TAP	84	288	7
STR	85	0	0
SI_	85	0	0	96	72	4
STR	85	0	3
SI_	85	0	3	96	72	7
TAP	85	288	5
TAP	85	288	6
TAP	86	0	3
TAP	86	0	4
TAP	86	96	2
TAP	86	96	4
TAP	86	192	1
TAP	86	192	4
TAP	86	288	0
TAP	86	288	4
STR	87	0	4
SI_	87	0	4	96	72	0
STR	87	0	7
SI_	87	0	7	96	72	3
TAP	87	288	1
TAP	87	288	2
TAP	88	0	0
TAP	88	0	7
TAP	88	96	4
TAP	88	96	6
TAP	88	192	0
TAP	88	192	2
TAP	88	288	5
TAP	88	288	7
TAP	89	0	1
TAP	89	0	3
TAP	89	96	4
TAP	89	96	5
TAP	89	192	2
TAP	89	192	3
TAP	89	288	4
TAP	89	288	6
TAP	90	0	0
TAP	90	0	1
TAP	90	96	4
TAP	90	96	5
TAP	90	192	6
TAP	90	192	7
TAP	90	288	2
STR	90	288	3
SCL	90	288	3	96	192	4
BRK	91	288	0
BRK	91	288	7
TAP	92	0	0
TAP	92	0	1
TAP	92	96	0
TAP	92	96	1
TAP	92	192	5
TAP	92	192	6
TAP	92	288	5
TAP	92	288	6
TAP	93	0	0
TAP	93	0	2
TAP	93	96	6
TAP	93	96	7
TAP	93	192	0
TAP	93	192	2
TAP	93	288	5
TAP	93	336	5
TAP	94	0	6
TAP	94	0	7
TAP	94	96	6
TAP	94	96	7
TAP	94	192	1
TAP	94	192	2
TAP	94	288	1
TAP	94	288	2
TAP	95	0	5
TAP	95	0	7
TAP	95	96	2
TAP	95	96	3
TAP	95	192	4
TAP	95	240	4
TAP	95	288	0
TAP	95	336	0
TAP	96	0	6
TAP	96	0	7
TAP	96	96	6
TAP	96	96	7
TAP	96	192	1
TAP	96	192	2
TAP	96	288	1
TAP	96	288	2
TAP	97	0	5
TAP	97	0	7
TAP	97	96	0
TAP	97	96	1
TAP	97	192	5
TAP	97	192	7
TAP	97	288	2
TAP	97	336	2
HLD	98	0	0	96
HLD	98	0	1	96
HLD	98	144	5	96
HLD	98	144	6	96
TAP	98	288	2
TAP	98	288	3
TAP	99	0	1
TAP	99	0	4
STR	99	96	0
SCR	99	96	0	96	72	3
STR	99	96	5
SCR	99	96	5	96	72	0
TAP	100	0	6
TAP	100	0	7
TAP	100	96	6
TAP	100	96	7
TAP	100	192	1
TAP	100	192	2
TAP	100	288	1
TAP	100	288	2
TAP	101	0	5
TAP	101	0	7
TAP	101	96	0
TAP	101	96	1
TAP	101	192	5
TAP	101	192	7
TAP	101	288	2
TAP	101	336	2
TAP	102	0	0
TAP	102	0	1
TAP	102	96	0
TAP	102	96	1
TAP	102	192	6
TAP	102	192	7
TAP	102	288	6
TAP	102	288	7
TAP	103	0	3
TAP	103	0	4
TAP	103	48	3
TAP	103	48	4
TAP	103	96	3
TAP	103	96	4
TAP	103	192	1
TAP	103	192	6
TAP	103	288	5
TAP	103	336	5
TAP	104	0	6
TAP	104	0	7
TAP	104	96	3
TAP	104	96	4
TAP	104	192	2
TAP	104	240	2
TAP	104	288	0
TAP	104	288	1
TAP	105	0	4
TAP	105	48	4
TAP	105	96	2
TAP	105	144	2
TAP	105	192	6
TAP	105	240	6
TAP	105	288	0
TAP	105	288	7
TAP	106	0	1
TAP	106	48	3
TAP	106	96	2
TAP	106	144	6
TAP	106	192	4
TAP	106	240	5
TAP	106	288	0
TAP	106	336	7
STR	107	0	1
SCL	107	0	1	96	96	6
STR	107	96	6
SCL	107	96	6	96	96	3
BRK	107	288	7
TAP	108	0	2
TAP	108	48	3
TAP	108	96	1
TAP	108	144	4
TAP	108	192	2
TAP	108	240	3
TAP	108	288	0
TAP	108	336	5
TAP	109	0	2
TAP	109	48	3
TAP	109	96	7
TAP	109	144	6
TAP	109	192	0
TAP	109	240	0
TAP	109	288	1
TAP	109	288	7
TAP	110	0	5
TAP	110	48	4
TAP	110	96	6
TAP	110	144	3
TAP	110	192	5
TAP	110	240	4
TAP	110	288	7
TAP	110	336	2
TAP	111	0	5
TAP	111	48	4
TAP	111	96	0
TAP	111	144	1
TAP	111	192	7
TAP	111	240	7
TAP	111	288	0
TAP	111	288	6
TAP	112	0	3
TAP	112	48	4
TAP	112	96	2
TAP	112	144	5
TAP	112	192	3
TAP	112	240	4
TAP	112	288	1
TAP	112	336	6
TAP	113	0	3
TAP	113	48	4
TAP	113	96	0
TAP	113	144	7
TAP	113	192	0
TAP	113	240	1
TAP	113	288	2
TAP	113	336	3
TAP	114	0	6
TAP	114	48	4
TAP	114	96	5
TAP	114	144	1
TAP	114	192	3
TAP	114	240	2
TAP	114	288	7
TAP	114	336	0
STR	115	0	6
SI_	115	0	6	96	48	2
STR	115	96	7
SI_	115	96	7	96	48	3
STR	115	192	0
SI_	115	192	0	96	48	4
BRK	115	288	1
TAP	116	0	2
TAP	116	48	5
TAP	116	96	2
TAP	116	144	4
TAP	116	192	2
TAP	116	240	3
TAP	116	288	2
TAP	116	336	1
TAP	117	0	2
TAP	117	48	0
TAP	117	96	2
TAP	117	144	7
TAP	117	192	0
TAP	117	192	6
TAP	117	240	0
TAP	117	240	6
TAP	117	288	0
TAP	117	288	6
TAP	118	0	5
TAP	118	48	2
TAP	118	96	5
TAP	118	144	3
TAP	118	192	5
TAP	118	240	4
TAP	118	288	5
TAP	118	336	6
TAP	119	0	5
TAP	119	48	7
TAP	119	96	5
TAP	119	144	0
TAP	119	192	1
TAP	119	192	7
TAP	119	240	1
TAP	119	240	7
TAP	119	288	1
TAP	119	288	7
TAP	120	0	2
TAP	120	48	2
TAP	120	96	2
TAP	120	144	2
TAP	120	192	4
TAP	120	240	4
TAP	120	288	4
TAP	120	336	4
TAP	121	0	3
TAP	121	48	3
TAP	121	96	3
TAP	121	144	3
TAP	121	192	6
TAP	121	240	6
TAP	121	288	6
TAP	121	336	6
TAP	122	0	1
TAP	122	48	1
TAP	122	96	1
TAP	122	144	1
TAP	122	192	5
TAP	122	240	5
TAP	122	288	5
TAP	122	336	5
TAP	123	0	0
TAP	123	48	0
TAP	123	96	0
TAP	123	144	0
TAP	123	192	0
TAP	123	192	7
TAP	123	240	0
TAP	123	240	7
TAP	123	288	0
TAP	123	288	7
TAP	123	336	0
TAP	123	336	7
BST	124	0	0
SCR	124	0	0	96	1152	7
BST	124	0	7
SCL	124	0	7	96	1152	0
STR	127	192	0
SI_	127	192	0	96	48	3
STR	127	192	7
SI_	127	192	7	96	48	4

T_REC_TAP	621
T_REC_BRK	8
T_REC_XTP	0
T_REC_HLD	26
T_REC_XHO	0
T_REC_STR	44
T_REC_BST	4
T_REC_XST	0
T_REC_TTP	0
T_REC_THO	0
T_REC_SLD	48
T_REC_ALL	751
T_NUM_TAP	665
T_NUM_BRK	12
T_NUM_HLD	26
T_NUM_SLD	48
T_NUM_ALL	751
T_JUDGE_TAP	677
T_JUDGE_HLD	37
T_JUDGE_SLD	48
T_JUDGE_ALL	762
TTM_EACHPAIRS	232
TTM_SCR_TAP	332500
TTM_SCR_BRK	31200
TTM_SCR_HLD	26000
TTM_SCR_SLD	72000
TTM_SCR_ALL	461700
TTM_SCR_S	446700
TTM_SCR_SS	460500
TTM_RAT_ACV	10026

