VERSION	0.00.00	1.03.00
FES_MODE	0
BPM_DEF	243.000	243.000	243.000	243.000
MET_DEF	4	4
RESOLUTION	384
CLK_DEF	384
COMPATIBLE_CODE	MA2

BPM	0	0	243.000
MET	0	0	4	4

TAP	6	0	1
TAP	6	192	2
TAP	7	0	3
TAP	7	192	4
TAP	8	0	5
TAP	8	192	6
TAP	9	0	7
TAP	9	192	0
TAP	9	192	7
TAP	10	0	6
TAP	10	192	5
TAP	11	0	4
TAP	11	192	3
TAP	12	0	2
TAP	12	192	1
TAP	13	0	0
TAP	13	192	0
TAP	13	192	7
TAP	14	0	5
TAP	14	192	6
TAP	15	0	7
TAP	15	192	0
TAP	16	0	1
TAP	16	192	2
TAP	17	0	3
TAP	17	192	3
TAP	17	192	4
STR	18	0	2
SCL	18	0	2	96	192	0
STR	18	0	5
SCR	18	0	5	96	192	7
TAP	19	0	0
TAP	19	0	7
TAP	19	192	2
TAP	19	192	3
STR	20	0	4
SCL	20	0	4	96	336	0
STR	20	0	5
SUL	20	0	5	96	336	7
TAP	21	192	4
TAP	21	192	6
STR	22	0	2
SUR	22	0	2	96	336	0
STR	22	0	3
SCR	22	0	3	96	336	7
TAP	23	192	1
TAP	23	192	3
TAP	24	0	4
STR	24	0	5
SCR	24	0	5	96	192	0
STR	25	0	2
SCL	25	0	2	96	192	7
TAP	25	0	3
TAP	26	0	4
TAP	26	0	5
TAP	26	192	2
TAP	26	192	3
TAP	27	0	6
TAP	27	96	7
TAP	27	192	0
BRK	27	288	1
BRK	27	288	6
TAP	28	0	3
TAP	28	96	3
TAP	28	192	4
TAP	28	288	4
TAP	29	0	2
TAP	29	96	2
TAP	29	192	1
TAP	29	192	3
TAP	30	0	4
TAP	30	96	4
TAP	30	192	3
TAP	30	288	3
TAP	31	0	5
TAP	31	96	5
TAP	31	192	4
TAP	31	192	6
TAP	32	0	6
TAP	32	96	6
TAP	32	192	7
TAP	32	288	7
TAP	33	0	0
TAP	33	96	0
TAP	33	192	1
TAP	33	288	1
HLD	34	0	2	192
HLD	34	192	3	192
HLD	35	0	4	192
HLD	35	192	5	192
TAP	36	0	4
TAP	36	96	4
TAP	36	192	3
TAP	36	288	3
TAP	37	0	5
TAP	37	96	5
TAP	37	192	4
TAP	37	192	6
TAP	38	0	3
TAP	38	96	3
TAP	38	192	4
TAP	38	288	4
TAP	39	0	2
TAP	39	96	2
TAP	39	192	1
TAP	39	192	3
TAP	40	0	1
TAP	40	96	1
TAP	40	192	0
TAP	40	288	0
TAP	41	0	7
TAP	41	96	7
TAP	41	192	6
TAP	41	288	6
HLD	42	0	5	192
HLD	42	192	4	192
HLD	43	0	3	192
HLD	43	192	2	192
TAP	44	0	3
TAP	44	96	3
TAP	44	192	1
TAP	44	288	1
TAP	45	0	7
TAP	45	96	7
TAP	45	192	0
TAP	45	192	6
TAP	46	0	4
TAP	46	96	4
TAP	46	192	6
TAP	46	288	6
TAP	47	0	0
TAP	47	96	0
TAP	47	192	1
TAP	47	192	7
TAP	48	0	3
TAP	48	96	3
TAP	48	192	5
TAP	48	288	5
TAP	49	0	1
TAP	49	96	1
TAP	49	192	7
STR	49	288	7
SSR	49	288	7	96	288	3
STR	51	0	2
SI_	51	0	2	96	144	7
STR	51	0	4
SI_	51	0	4	96	144	7
TAP	52	0	6
TAP	52	96	6
TAP	52	192	6
TAP	52	288	6
TAP	53	0	7
TAP	53	96	7
TAP	53	192	7
TAP	53	288	7
TAP	54	0	0
TAP	54	96	0
TAP	54	192	0
TAP	54	288	0
TAP	55	0	1
TAP	55	96	1
TAP	55	192	1
TAP	55	288	1
HLD	56	0	2	96
HLD	56	0	3	96
HLD	56	192	4	96
HLD	56	192	5	96
HLD	57	0	1	96
HLD	57	0	3	96
HLD	57	192	4	96
HLD	57	192	6	96
TAP	58	0	1
TAP	58	0	7
TAP	58	96	1
TAP	58	96	7
TAP	58	192	0
TAP	58	192	6
TAP	58	288	0
STR	58	288	6
SSL	58	288	6	96	288	2
BRK	60	0	0
TAP	61	96	3
TAP	61	192	3
TAP	61	288	4
STR	62	0	4
SCR	62	0	4	96	384	0
TAP	63	288	1
STR	64	0	1
SUR	64	0	1	96	288	7
TAP	65	192	6
TAP	65	288	5
STR	66	0	4
SI_	66	0	4	96	192	0
STR	67	0	1
SI_	67	0	1	96	144	4
STR	67	0	7
SI_	67	0	7	96	144	4
TAP	68	0	5
TAP	68	96	4
TAP	68	192	3
TAP	68	288	4
TAP	68	288	6
TAP	69	0	3
TAP	69	96	4
TAP	69	192	1
TAP	69	192	3
TAP	70	0	7
TAP	70	96	7
TAP	70	192	0
TAP	70	192	6
TAP	70	288	0
TAP	70	288	6
TAP	71	0	1
TAP	71	96	1
TAP	71	192	0
TAP	71	192	2
TAP	72	0	0
TAP	72	96	0
TAP	72	192	1
TAP	72	192	7
TAP	72	288	1
TAP	72	288	7
TAP	73	0	6
TAP	73	96	6
TAP	73	192	5
TAP	73	192	7
STR	74	0	1
SUR	74	0	1	96	192	6
TAP	75	0	7
TAP	75	96	0
TAP	75	192	1
TAP	75	192	6
TAP	76	0	2
TAP	76	96	1
TAP	76	96	3
TAP	76	192	0
TAP	76	288	1
TAP	76	288	7
TAP	77	0	6
TAP	77	96	5
TAP	77	192	4
TAP	77	288	3
TAP	77	288	6
TAP	78	0	2
TAP	78	96	1
TAP	78	96	4
TAP	78	192	2
TAP	78	288	3
TAP	79	0	4
TAP	79	96	5
TAP	79	192	6
TAP	79	192	7
TAP	80	0	2
TAP	80	96	2
TAP	80	96	3
TAP	80	192	5
TAP	80	288	4
TAP	80	288	5
TAP	81	0	3
STR	81	96	3
SXR	81	96	3	96	480	0
STR	81	96	4
SXL	81	96	4	96	480	7
TAP	83	0	0
TAP	83	0	7
TAP	83	96	1
TAP	83	96	6
TAP	83	192	2
TAP	83	192	5
TAP	83	288	3
TAP	83	288	4
TAP	84	0	2
TAP	84	96	2
TAP	84	192	2
TAP	84	288	2
STR	85	0	2
SUL	85	0	2	96	192	4
TAP	86	0	5
TAP	86	96	5
TAP	86	192	5
TAP	86	288	5
STR	87	0	5
SUR	87	0	5	96	192	3
TAP	88	0	1
TAP	88	96	1
STR	88	192	1
SI_	88	192	1	96	96	5
TAP	89	0	6
TAP	89	96	6
STR	89	192	6
SI_	89	192	6	96	96	2
TAP	90	0	0
STR	90	96	0
SI_	90	96	0	96	96	4
TAP	90	192	7
STR	90	288	7
SI_	90	288	7	96	96	3
BRK	91	288	1
BRK	91	288	6
TAP	92	0	5
TAP	92	96	5
TAP	92	192	4
TAP	92	288	3
TAP	92	288	5
TAP	93	0	2
TAP	93	96	3
TAP	93	192	2
TAP	93	192	4
TAP	94	0	1
TAP	94	96	1
TAP	94	192	0
TAP	94	288	1
TAP	94	288	7
TAP	95	0	6
TAP	95	96	7
TAP	95	192	0
TAP	95	192	6
TAP	96	0	1
TAP	96	96	0
TAP	96	192	1
TAP	96	288	2
TAP	96	288	7
TAP	97	0	6
TAP	97	96	7
TAP	97	192	6
TAP	97	288	0
TAP	97	288	5
STR	98	0	6
SI_	98	0	6	96	96	3
STR	98	192	2
SI_	98	192	2	96	96	7
STR	99	0	4
SI_	99	0	4	96	96	0
TAP	99	192	1
TAP	99	288	0
TAP	100	0	2
TAP	100	0	7
TAP	100	96	2
TAP	100	96	7
TAP	100	192	3
TAP	100	192	6
TAP	100	288	3
TAP	100	288	6
TAP	101	0	4
TAP	101	0	5
TAP	101	96	4
TAP	101	96	5
TAP	101	192	1
TAP	101	192	3
TAP	102	0	0
TAP	102	0	5
TAP	102	96	0
TAP	102	96	5
TAP	102	192	1
TAP	102	192	4
TAP	102	288	1
TAP	102	288	4
TAP	103	0	2
TAP	103	0	3
TAP	103	96	2
TAP	103	96	3
TAP	103	192	4
TAP	103	192	6
TAP	104	0	6
TAP	104	96	7
TAP	104	192	6
TAP	104	288	0
TAP	104	288	5
TAP	105	0	1
TAP	105	96	0
TAP	105	192	1
TAP	105	288	2
TAP	105	288	7
STR	106	0	1
SI_	106	0	1	96	96	4
STR	106	192	5
SI_	106	192	5	96	96	0
STR	107	0	3
SI_	107	0	3	96	96	7
TAP	107	192	6
TAP	107	288	7
TAP	108	0	5
TAP	108	96	4
TAP	108	96	5
TAP	108	192	2
TAP	108	288	2
TAP	108	288	3
TAP	109	0	5
TAP	109	96	4
TAP	109	96	6
TAP	109	192	3
TAP	109	192	7
TAP	110	0	2
TAP	110	96	2
TAP	110	96	3
TAP	110	192	5
TAP	110	288	4
TAP	110	288	5
TAP	111	0	2
TAP	111	96	1
TAP	111	96	3
TAP	111	192	0
TAP	111	192	4
TAP	112	0	5
TAP	112	96	4
TAP	112	96	6
TAP	112	192	2
TAP	112	288	1
TAP	112	288	3
TAP	113	0	6
TAP	113	96	5
TAP	113	96	7
TAP	113	192	1
TAP	113	288	0
TAP	113	288	2
TAP	114	0	5
TAP	114	96	1
TAP	114	96	4
TAP	114	192	2
TAP	114	288	3
TAP	114	288	6
TAP	115	0	2
TAP	115	0	5
TAP	115	96	1
TAP	115	96	6
BRK	115	192	0
BRK	115	192	7
TAP	116	0	0
TAP	116	0	1
TAP	116	96	0
TAP	116	96	1
TAP	116	192	2
TAP	116	192	7
TAP	116	288	2
TAP	116	288	7
TAP	117	0	3
TAP	117	0	6
TAP	117	96	3
TAP	117	96	6
TAP	117	192	4
TAP	117	192	5
TAP	117	288	4
TAP	117	288	5
TAP	118	0	6
TAP	118	0	7
TAP	118	96	6
TAP	118	96	7
TAP	118	192	0
TAP	118	192	5
TAP	118	288	0
TAP	118	288	5
TAP	119	0	1
TAP	119	0	4
TAP	119	96	1
TAP	119	96	4
TAP	119	192	2
TAP	119	192	3
TAP	119	288	2
TAP	119	288	3
TAP	120	0	1
TAP	120	0	4
TAP	120	96	1
TAP	120	96	4
TAP	120	192	3
TAP	120	192	6
TAP	120	288	3
TAP	120	288	6
TAP	121	0	0
TAP	121	0	7
TAP	121	96	1
TAP	121	96	6
TAP	121	192	2
TAP	121	192	5
TAP	121	288	3
TAP	121	288	4
TAP	122	0	1
TAP	122	0	3
TAP	122	96	1
TAP	122	96	3
TAP	122	192	4
TAP	122	192	6
TAP	122	288	4
TAP	122	288	6
TAP	123	0	2
TAP	123	0	5
TAP	123	96	2
TAP	123	96	5
TAP	123	192	1
TAP	123	192	6
TAP	123	288	1
TAP	123	288	6
BRK	124	0	0
BRK	124	0	7

T_REC_TAP	404
T_REC_BRK	9
T_REC_XTP	0
T_REC_HLD	16
T_REC_XHO	0
T_REC_STR	32
T_REC_BST	0
T_REC_XST	0
T_REC_TTP	0
T_REC_THO	0
T_REC_SLD	32
T_REC_ALL	493
T_NUM_TAP	436
T_NUM_BRK	9
T_NUM_HLD	16
T_NUM_SLD	32
T_NUM_ALL	493
T_JUDGE_TAP	445
T_JUDGE_HLD	24
T_JUDGE_SLD	32
T_JUDGE_ALL	501
TTM_EACHPAIRS	125
TTM_SCR_TAP	218000
TTM_SCR_BRK	23400
TTM_SCR_HLD	16000
TTM_SCR_SLD	48000
TTM_SCR_ALL	305400
TTM_SCR_S	295400
TTM_SCR_SS	304500
TTM_RAT_ACV	10029

