VERSION	0.00.00	1.03.00
FES_MODE	0
BPM_DEF	243.000	243.000	243.000	243.000
MET_DEF	4	4
RESOLUTION	384
CLK_DEF	384
COMPATIBLE_CODE	MA2

BPM	0	0	243.000
MET	0	0	4	4

TAP	6	0	3
TAP	6	192	3
TAP	7	0	2
TAP	7	192	2
TAP	8	0	1
TAP	8	192	1
TAP	9	0	0
TAP	9	192	0
TAP	10	0	7
TAP	10	192	7
TAP	11	0	6
TAP	11	192	6
TAP	12	0	5
TAP	12	192	5
TAP	13	0	4
TAP	13	192	4
TAP	14	0	3
TAP	14	0	4
TAP	14	192	2
TAP	15	0	1
TAP	15	192	0
TAP	16	0	7
TAP	16	192	6
TAP	17	0	5
TAP	17	192	4
TAP	18	0	2
TAP	18	0	5
TAP	19	0	4
TAP	19	192	3
TAP	20	0	4
TAP	20	0	5
TAP	20	192	5
HLD	21	0	4	192
HLD	21	0	5	192
TAP	22	0	6
TAP	22	0	7
TAP	22	192	6
TAP	23	0	0
TAP	23	0	7
TAP	24	0	0
TAP	24	0	1
TAP	24	192	1
HLD	25	0	0	192
HLD	25	0	1	192
TAP	26	0	2
TAP	26	0	3
TAP	26	192	2
BRK	27	0	3
BRK	27	0	4
TAP	28	0	4
TAP	28	96	4
TAP	28	192	4
TAP	29	0	3
TAP	29	96	3
TAP	29	192	3
TAP	30	0	5
TAP	30	96	5
TAP	30	192	5
TAP	31	0	2
TAP	31	96	2
TAP	31	192	2
TAP	32	0	6
TAP	32	96	6
TAP	32	192	6
TAP	33	0	1
TAP	33	96	1
TAP	33	192	1
TAP	34	0	0
TAP	34	0	7
TAP	34	192	0
TAP	34	192	7
TAP	35	0	1
TAP	35	0	6
TAP	36	0	3
TAP	36	96	3
TAP	36	192	3
TAP	37	0	4
TAP	37	96	4
TAP	37	192	4
TAP	38	0	2
TAP	38	96	2
TAP	38	192	2
TAP	39	0	5
TAP	39	96	5
TAP	39	192	5
TAP	40	0	1
TAP	40	96	1
TAP	40	192	1
TAP	41	0	6
TAP	41	96	6
TAP	41	192	6
TAP	42	0	0
TAP	42	0	7
TAP	42	192	0
TAP	42	192	7
TAP	43	0	1
TAP	43	0	6
TAP	44	0	7
TAP	44	96	7
TAP	44	192	7
TAP	45	0	6
TAP	45	96	6
TAP	45	192	6
TAP	46	0	5
TAP	46	96	5
TAP	46	192	5
TAP	47	0	4
TAP	47	96	4
TAP	47	192	4
TAP	48	0	3
TAP	48	96	3
TAP	48	192	3
TAP	49	0	2
TAP	49	96	2
TAP	49	192	2
TAP	50	0	1
TAP	50	96	1
TAP	50	192	1
TAP	51	0	0
TAP	51	96	0
TAP	51	192	0
HLD	52	0	0	384
HLD	52	0	7	384
HLD	54	0	1	384
HLD	54	0	6	384
HLD	56	0	2	384
HLD	56	0	5	384
BRK	58	0	3
BRK	58	0	4
STR	60	0	3
SI_	60	0	3	96	672	0
STR	64	0	4
SI_	64	0	4	96	672	7
TAP	68	0	0
TAP	68	192	0
TAP	69	0	0
TAP	69	0	1
TAP	70	0	7
TAP	70	192	7
TAP	71	0	6
TAP	71	0	7
TAP	72	0	1
TAP	72	192	1
TAP	73	0	0
TAP	73	0	1
HLD	74	0	7	384
TAP	76	0	6
TAP	76	192	6
TAP	77	0	6
TAP	77	0	7
TAP	77	192	6
TAP	77	192	7
TAP	78	0	5
TAP	78	192	5
TAP	79	0	4
TAP	79	0	5
TAP	79	192	4
TAP	79	192	5
TAP	80	0	2
TAP	80	192	2
TAP	81	0	2
TAP	81	0	3
TAP	81	192	2
TAP	81	192	3
HLD	82	0	0	384
STR	84	0	0
SI_	84	0	0	96	672	4
STR	88	0	7
SI_	88	0	7	96	672	3
TAP	92	0	0
TAP	92	96	0
TAP	92	192	0
TAP	92	288	0
TAP	93	0	0
TAP	93	96	0
TAP	93	192	0
TAP	94	0	7
TAP	94	96	7
TAP	94	192	7
TAP	94	288	7
TAP	95	0	7
TAP	95	96	7
TAP	95	192	7
TAP	96	0	0
TAP	96	96	0
TAP	96	192	0
TAP	96	288	0
TAP	97	0	0
TAP	97	96	0
TAP	97	192	0
TAP	98	0	6
TAP	98	0	7
TAP	98	192	6
TAP	98	192	7
TAP	99	0	4
TAP	99	0	5
TAP	99	192	4
TAP	99	192	5
TAP	100	0	3
TAP	100	96	3
TAP	100	192	3
TAP	100	288	3
TAP	101	0	3
TAP	101	96	3
TAP	101	192	3
TAP	102	0	4
TAP	102	96	4
TAP	102	192	4
TAP	102	288	4
TAP	103	0	4
TAP	103	96	4
TAP	103	192	4
TAP	104	0	3
TAP	104	96	3
TAP	104	192	3
TAP	104	288	3
TAP	105	0	3
TAP	105	96	3
TAP	105	192	3
TAP	106	0	3
TAP	106	0	4
TAP	106	192	3
TAP	106	192	4
TAP	107	0	2
TAP	107	0	5
TAP	107	192	2
TAP	107	192	5
TAP	108	0	2
TAP	108	96	2
TAP	108	192	3
TAP	108	288	3
TAP	109	0	2
TAP	109	96	2
TAP	109	192	2
TAP	110	0	5
TAP	110	96	5
TAP	110	192	4
TAP	110	288	4
TAP	111	0	5
TAP	111	96	5
TAP	111	192	5
TAP	112	0	2
TAP	112	96	2
TAP	112	192	3
TAP	112	288	3
TAP	113	0	2
TAP	113	96	2
TAP	113	192	2
TAP	114	0	5
TAP	114	96	5
TAP	114	192	4
TAP	114	288	4
TAP	115	0	5
TAP	115	96	5
TAP	115	192	5
TAP	116	0	3
TAP	116	96	3
TAP	116	192	4
TAP	116	288	4
TAP	117	0	3
TAP	117	96	3
TAP	117	192	4
TAP	117	288	4
TAP	118	0	3
TAP	118	96	3
TAP	118	192	4
TAP	118	288	4
TAP	119	0	3
TAP	119	96	3
TAP	119	192	4
TAP	120	0	3
TAP	120	96	3
TAP	120	192	2
TAP	120	288	2
TAP	121	0	1
TAP	121	96	1
TAP	121	192	0
TAP	121	288	0
TAP	122	0	7
TAP	122	96	7
TAP	122	192	6
TAP	122	288	6
TAP	123	0	5
TAP	123	96	5
TAP	123	192	4
TAP	123	288	4
BRK	124	0	3

T_REC_TAP	262
T_REC_BRK	5
T_REC_XTP	0
T_REC_HLD	12
T_REC_XHO	0
T_REC_STR	4
T_REC_BST	0
T_REC_XST	0
T_REC_TTP	0
T_REC_THO	0
T_REC_SLD	4
T_REC_ALL	287
T_NUM_TAP	266
T_NUM_BRK	5
T_NUM_HLD	12
T_NUM_SLD	4
T_NUM_ALL	287
T_JUDGE_TAP	271
T_JUDGE_HLD	40
T_JUDGE_SLD	4
T_JUDGE_ALL	315
TTM_EACHPAIRS	37
TTM_SCR_TAP	133000
TTM_SCR_BRK	13000
TTM_SCR_HLD	12000
TTM_SCR_SLD	6000
TTM_SCR_ALL	164000
TTM_SCR_S	158600
TTM_SCR_SS	163500
TTM_RAT_ACV	10030

