VERSION	0.00.00	1.03.00
FES_MODE	0
BPM_DEF	182.000	182.000	182.000	182.000
MET_DEF	4	4
RESOLUTION	384
CLK_DEF	384
COMPATIBLE_CODE	MA2

BPM	0	0	182.000
MET	0	0	4	4

TAP	2	0	4
TAP	2	0	6
TAP	2	48	5
TAP	2	96	2
STR	2	144	1
SI_	2	144	1	96	48	4
TAP	2	144	3
TAP	2	240	1
TAP	2	288	5
TAP	2	336	4
STR	2	336	6
SI_	2	336	6	96	48	3
TAP	3	48	6
TAP	3	96	1
TAP	3	144	0
STR	3	144	2
SI_	3	144	2	96	48	7
TAP	3	240	2
TAP	3	288	5
TAP	3	336	6
TAP	4	0	5
TAP	4	0	7
TAP	4	48	0
TAP	4	96	1
STR	4	144	0
SI_	4	144	0	96	48	4
TAP	4	144	2
TAP	4	240	0
TAP	4	288	7
TAP	4	336	6
TAP	5	0	5
TAP	5	0	7
TAP	5	48	1
TAP	5	96	0
TAP	5	96	2
TAP	5	144	4
TAP	5	192	2
TAP	5	216	3
TAP	5	240	2
TAP	5	288	1
TAP	5	288	4
TAP	5	336	0
TAP	5	336	7
TAP	6	0	4
TAP	6	0	6
TAP	6	48	5
TAP	6	96	2
STR	6	144	1
SI_	6	144	1	96	48	4
TAP	6	144	3
TAP	6	240	1
TAP	6	288	5
TAP	6	336	4
STR	6	336	6
SI_	6	336	6	96	48	3
TAP	7	48	6
TAP	7	96	1
TAP	7	144	2
TAP	7	192	1
TAP	7	192	3
TAP	7	240	2
TAP	7	288	4
TAP	7	288	6
TAP	7	336	5
TAP	8	0	0
TAP	8	0	2
TAP	8	48	1
TAP	8	96	5
STR	8	144	6
SI_	8	144	6	96	48	2
TAP	8	144	7
TAP	8	240	6
TAP	8	288	0
HLD	8	336	1	240
TAP	9	192	7
TAP	9	204	6
TAP	9	216	5
TAP	9	228	4
TAP	9	240	3
TAP	9	252	2
TAP	9	264	1
TAP	9	276	0
BRK	9	288	7
TAP	10	0	1
TAP	10	0	3
TAP	10	48	2
TAP	10	96	5
TAP	10	144	4
STR	10	144	6
SI_	10	144	6	96	48	3
TAP	10	240	6
TAP	10	288	2
STR	10	336	1
SI_	10	336	1	96	48	4
TAP	10	336	3
TAP	11	48	1
TAP	11	96	6
STR	11	144	5
SI_	11	144	5	96	48	0
TAP	11	144	7
TAP	11	240	5
TAP	11	288	2
TAP	11	336	1
TAP	12	0	0
TAP	12	0	2
TAP	12	48	7
TAP	12	96	6
TAP	12	144	5
STR	12	144	7
SI_	12	144	7	96	48	3
TAP	12	240	7
TAP	12	288	0
TAP	12	336	1
TAP	13	0	0
TAP	13	0	2
TAP	13	48	6
TAP	13	96	5
TAP	13	96	7
TAP	13	144	3
TAP	13	192	5
TAP	13	216	4
TAP	13	240	5
TAP	13	288	3
TAP	13	288	6
TAP	13	336	0
TAP	13	336	7
TAP	14	0	1
TAP	14	0	3
TAP	14	48	2
TAP	14	96	5
TAP	14	144	4
STR	14	144	6
SI_	14	144	6	96	48	3
TAP	14	240	6
TAP	14	288	2
STR	14	336	1
SI_	14	336	1	96	48	4
TAP	14	336	3
TAP	15	48	1
TAP	15	96	6
TAP	15	144	5
TAP	15	192	4
TAP	15	192	6
TAP	15	240	5
TAP	15	288	1
TAP	15	288	3
TAP	15	336	2
TAP	16	0	5
TAP	16	0	7
TAP	16	48	6
TAP	16	96	2
TAP	16	144	0
STR	16	144	1
SI_	16	144	1	96	48	5
TAP	16	240	1
TAP	16	288	7
HLD	16	336	6	240
TAP	17	192	0
TAP	17	204	1
TAP	17	216	2
TAP	17	228	3
TAP	17	240	4
TAP	17	252	5
TAP	17	264	6
TAP	17	276	7
BRK	17	288	0
TAP	18	0	3
TAP	18	0	6
TAP	18	48	5
TAP	18	96	4
TAP	18	144	2
TAP	18	144	7
TAP	18	192	5
TAP	18	240	4
TAP	18	288	0
TAP	18	288	1
TAP	19	0	1
TAP	19	0	4
TAP	19	48	2
TAP	19	96	3
TAP	19	144	0
TAP	19	144	5
TAP	19	192	2
TAP	19	240	3
TAP	19	288	6
TAP	19	288	7
TAP	20	0	2
TAP	20	0	7
TAP	20	48	1
TAP	20	96	0
TAP	20	144	3
TAP	20	144	6
TAP	20	192	1
TAP	20	240	0
TAP	20	288	4
TAP	20	288	5
TAP	21	0	0
TAP	21	0	5
TAP	21	48	6
TAP	21	96	7
TAP	21	144	1
TAP	21	144	4
TAP	21	192	6
TAP	21	240	7
TAP	21	288	2
TAP	21	288	3
TAP	22	0	1
TAP	22	0	4
TAP	22	48	5
TAP	22	96	4
TAP	22	144	3
TAP	22	144	6
TAP	22	192	2
TAP	22	240	3
TAP	22	288	0
HLD	22	288	7	96
STR	23	0	5
SI_	23	0	5	96	48	0
STR	23	96	2
SI_	23	96	2	96	48	7
STR	23	192	4
SI_	23	192	4	96	48	0
TAP	23	288	3
TAP	24	0	0
TAP	24	0	5
TAP	24	48	6
TAP	24	96	7
TAP	24	144	2
TAP	24	144	7
TAP	24	192	1
TAP	24	240	0
TAP	24	288	0
TAP	24	288	7
TAP	25	0	2
TAP	25	24	3
TAP	25	48	2
TAP	25	72	3
TAP	25	96	1
TAP	25	144	5
TAP	25	168	4
TAP	25	192	5
TAP	25	216	4
TAP	25	240	6
BRK	25	288	0
BRK	25	288	7
TAP	26	0	1
TAP	26	0	4
TAP	26	48	2
TAP	26	72	3
TAP	26	96	2
TAP	26	144	1
TAP	26	144	4
TAP	26	192	5
TAP	26	240	4
TAP	26	288	3
TAP	26	288	6
TAP	26	336	1
TAP	27	0	3
TAP	27	0	6
TAP	27	48	5
TAP	27	72	4
TAP	27	96	5
TAP	27	144	3
TAP	27	144	6
TAP	27	192	2
TAP	27	240	3
TAP	27	288	1
TAP	27	288	4
TAP	27	336	6
TAP	28	0	0
TAP	28	0	5
TAP	28	48	6
TAP	28	72	7
TAP	28	96	6
TAP	28	144	0
TAP	28	144	5
TAP	28	192	1
TAP	28	240	0
TAP	28	288	2
TAP	28	288	7
TAP	28	336	5
TAP	29	0	2
TAP	29	0	7
TAP	29	48	1
TAP	29	72	0
TAP	29	96	1
TAP	29	144	2
TAP	29	144	7
TAP	29	192	6
TAP	29	240	7
TAP	29	288	0
TAP	29	288	5
TAP	29	336	1
TAP	30	0	3
TAP	30	0	6
TAP	30	48	2
TAP	30	72	3
TAP	30	96	2
TAP	30	144	1
TAP	30	144	4
TAP	30	192	3
TAP	30	192	6
TAP	30	240	2
TAP	30	240	5
HLD	30	288	0	96
TAP	30	288	7
TAP	30	336	7
STR	31	0	2
SI_	31	0	2	96	48	7
TAP	31	48	2
STR	31	96	5
SI_	31	96	5	96	48	0
TAP	31	144	5
STR	31	192	3
SI_	31	192	3	96	48	7
TAP	31	240	3
TAP	31	288	4
TAP	31	336	4
TAP	32	0	3
TAP	32	0	6
TAP	32	48	5
TAP	32	72	4
TAP	32	96	5
TAP	32	144	1
TAP	32	144	4
TAP	32	192	2
TAP	32	216	3
TAP	32	240	2
TAP	32	288	6
TAP	32	312	7
TAP	32	336	6
TAP	33	0	1
TAP	33	0	4
TAP	33	48	2
TAP	33	72	3
TAP	33	96	2
TAP	33	144	3
TAP	33	144	6
TAP	33	192	5
TAP	33	216	4
TAP	33	240	5
TAP	33	288	1
TAP	33	312	0
TAP	33	336	1
STR	34	0	6
SI_	34	0	6	96	48	1
TAP	34	96	6
STR	34	144	2
SI_	34	144	2	96	48	5
TAP	34	240	2
STR	34	288	7
SI_	34	288	7	96	48	4
STR	35	0	7
SI_	35	0	7	96	48	2
TAP	35	96	7
STR	35	144	3
SI_	35	144	3	96	48	6
TAP	35	240	3
TAP	35	288	7
STR	36	0	6
SCL	36	0	6	96	48	3
TAP	36	48	7
TAP	36	96	0
STR	36	144	1
SCL	36	144	1	96	48	6
TAP	36	192	2
TAP	36	240	3
STR	36	288	4
SCL	36	288	4	96	48	1
TAP	36	336	5
TAP	37	0	6
TAP	37	48	7
TAP	37	96	0
TAP	37	144	1
TAP	37	192	0
TAP	37	192	2
TAP	37	240	6
TAP	37	288	5
TAP	37	288	7
STR	38	0	1
SI_	38	0	1	96	48	6
TAP	38	96	1
STR	38	144	5
SI_	38	144	5	96	48	2
TAP	38	240	5
STR	38	288	0
SI_	38	288	0	96	48	3
STR	39	0	0
SI_	39	0	0	96	48	5
TAP	39	96	0
STR	39	144	4
SI_	39	144	4	96	48	1
TAP	39	240	4
STR	39	288	7
SI_	39	288	7	96	48	4
STR	40	0	7
SI_	40	0	7	96	48	2
TAP	40	96	7
STR	40	144	3
SI_	40	144	3	96	48	6
TAP	40	240	3
TAP	40	288	1
TAP	41	0	5
BRK	41	0	7
BRK	41	144	0
TAP	41	144	2
BRK	41	288	1
BRK	41	288	6
STR	42	0	6
SCR	42	0	6	96	48	1
TAP	42	96	6
STR	42	144	2
SCR	42	144	2	96	48	5
TAP	42	240	2
STR	42	288	7
SI_	42	288	7	96	48	3
STR	43	0	7
SCR	43	0	7	96	48	2
TAP	43	96	7
STR	43	144	3
SCR	43	144	3	96	48	6
TAP	43	240	3
TAP	43	288	7
STR	44	0	1
SCR	44	0	1	96	48	4
TAP	44	48	0
TAP	44	96	7
STR	44	144	6
SCR	44	144	6	96	48	1
TAP	44	192	5
TAP	44	240	4
STR	44	288	3
SCR	44	288	3	96	48	6
TAP	44	336	2
TAP	45	0	1
TAP	45	48	0
TAP	45	96	7
TAP	45	144	6
TAP	45	192	5
TAP	45	192	7
TAP	45	240	1
TAP	45	288	0
TAP	45	288	2
STR	46	0	1
SCL	46	0	1	96	48	6
TAP	46	96	1
STR	46	144	5
SCL	46	144	5	96	48	2
TAP	46	240	5
STR	46	288	0
SI_	46	288	0	96	48	4
STR	47	0	0
SCL	47	0	0	96	48	5
TAP	47	96	0
STR	47	144	4
SCL	47	144	4	96	48	1
TAP	47	240	4
STR	47	288	7
SI_	47	288	7	96	48	3
STR	48	0	7
SCR	48	0	7	96	48	2
TAP	48	96	7
STR	48	144	3
SCR	48	144	3	96	48	6
TAP	48	240	3
STR	48	288	0
SF_	48	288	0	96	48	4
BRK	49	0	0
BRK	49	144	3
BRK	49	144	7
BRK	49	288	0
BST	49	288	4
SUL	49	288	4	96	384	0
SUR	49	288	4	96	384	0
STR	51	96	1
SI_	51	96	1	96	48	6
TAP	51	96	4
TAP	51	192	1
STR	51	192	5
SI_	51	192	5	96	48	2
TAP	51	288	0
TAP	51	288	5
HLD	51	336	0	96
STR	52	48	6
SCL	52	48	6	96	48	3
TAP	52	96	1
TAP	52	144	6
STR	52	192	1
SI_	52	192	1	96	48	4
STR	52	240	4
SI_	52	240	4	96	48	1
TAP	52	288	1
TAP	52	336	5
TAP	53	96	3
STR	53	96	6
SI_	53	96	6	96	48	1
STR	53	192	2
SI_	53	192	2	96	48	5
TAP	53	192	6
TAP	53	288	2
TAP	53	288	7
HLD	53	336	7	96
STR	54	48	1
SCR	54	48	1	96	48	4
TAP	54	96	6
TAP	54	144	1
STR	54	192	6
SI_	54	192	6	96	48	3
STR	54	240	3
SI_	54	240	3	96	48	6
TAP	54	288	6
TAP	54	336	2
STR	55	96	0
SI_	55	96	0	96	48	4
STR	55	96	1
SI_	55	96	1	96	48	5
TAP	55	192	0
TAP	55	192	1
TAP	55	288	2
TAP	55	288	3
HLD	55	336	0	96
HLD	55	336	5	96
STR	56	96	6
SI_	56	96	6	96	48	2
STR	56	96	7
SI_	56	96	7	96	48	3
TAP	56	192	6
TAP	56	192	7
TAP	56	288	4
TAP	56	288	5
HLD	56	336	2	96
HLD	56	336	7	96
STR	57	96	3
SI_	57	96	3	96	48	7
STR	57	96	4
SI_	57	96	4	96	48	0
TAP	57	192	3
TAP	57	192	4
TAP	57	288	2
TAP	57	288	5
BRK	57	336	0
BRK	57	336	7
TAP	58	48	6
TAP	58	96	5
TAP	58	144	4
TAP	58	144	6
TAP	58	192	2
TAP	58	216	3
TAP	58	240	2
TAP	58	288	1
TAP	58	288	4
TAP	58	336	7
TAP	59	0	0
TAP	59	0	5
STR	59	96	0
SI_	59	96	0	96	48	3
TAP	59	96	7
TAP	59	192	0
STR	59	192	4
SI_	59	192	4	96	48	7
TAP	59	288	1
TAP	59	288	4
HLD	59	336	1	96
STR	60	48	7
SCL	60	48	7	96	48	4
TAP	60	96	2
TAP	60	144	7
STR	60	192	0
SI_	60	192	0	96	48	5
STR	60	240	5
SI_	60	240	5	96	48	0
TAP	60	288	0
TAP	60	336	4
TAP	61	96	0
STR	61	96	7
SI_	61	96	7	96	48	4
STR	61	192	3
SI_	61	192	3	96	48	0
TAP	61	192	7
TAP	61	288	3
TAP	61	288	6
HLD	61	336	6	96
STR	62	48	0
SCR	62	48	0	96	48	3
TAP	62	96	5
TAP	62	144	0
STR	62	192	7
SI_	62	192	7	96	48	2
STR	62	240	2
SI_	62	240	2	96	48	7
TAP	62	288	7
TAP	62	336	3
STR	63	96	4
SI_	63	96	4	96	48	0
STR	63	96	5
SI_	63	96	5	96	48	1
TAP	63	192	4
TAP	63	192	5
TAP	63	288	2
TAP	63	288	6
HLD	63	336	0	96
HLD	63	336	7	96
STR	64	96	2
SI_	64	96	2	96	48	6
STR	64	96	3
SI_	64	96	3	96	48	7
TAP	64	192	2
TAP	64	192	3
TAP	64	288	1
TAP	64	288	5
BRK	64	336	0
BRK	64	336	7
TAP	65	48	1
TAP	65	96	2
TAP	65	144	1
TAP	65	144	3
TAP	65	192	5
TAP	65	216	4
TAP	65	240	5
TAP	65	288	3
TAP	65	288	6
BRK	65	336	0
BRK	65	336	7
TAP	66	48	2
TAP	66	72	3
TAP	66	96	2
TAP	66	144	5
TAP	66	168	4
TAP	66	192	5
TAP	66	240	2
TAP	66	264	3
TAP	66	288	1
TAP	66	336	5
TAP	66	360	4
TAP	67	0	6
STR	67	96	1
SI_	67	96	1	96	48	4
TAP	67	96	4
TAP	67	192	1
STR	67	192	6
SI_	67	192	6	96	48	2
TAP	67	288	0
TAP	67	288	6
HLD	67	336	0	96
STR	68	48	7
SI_	68	48	7	96	48	4
STR	68	96	4
SI_	68	96	4	96	48	7
STR	68	144	7
SI_	68	144	7	96	48	2
TAP	68	192	3
STR	68	240	3
SI_	68	240	3	96	48	0
SI_	68	240	3	96	48	6
TAP	69	96	3
STR	69	96	6
SI_	69	96	6	96	48	3
STR	69	192	1
SI_	69	192	1	96	48	5
TAP	69	192	6
TAP	69	288	1
TAP	69	288	7
HLD	69	336	7	96
STR	70	48	0
SI_	70	48	0	96	48	3
STR	70	96	3
SI_	70	96	3	96	48	0
STR	70	144	0
SI_	70	144	0	96	48	5
TAP	70	192	4
STR	70	240	4
SI_	70	240	4	96	48	1
SI_	70	240	4	96	48	7
STR	71	96	1
SI_	71	96	1	96	48	5
TAP	71	96	2
STR	71	192	0
SI_	71	192	0	96	48	4
TAP	71	192	1
TAP	71	288	0
TAP	71	288	7
TAP	71	336	7
TAP	72	96	5
STR	72	96	6
SI_	72	96	6	96	48	2
TAP	72	192	6
STR	72	192	7
SI_	72	192	7	96	48	3
TAP	72	288	0
TAP	72	288	7
TAP	72	336	0
TAP	73	96	2
STR	73	96	3
SI_	73	96	3	96	48	7
TAP	73	192	3
STR	73	192	4
SI_	73	192	4	96	48	0
TAP	73	288	4
TAP	73	288	5
TAP	73	336	5
TAP	74	48	1
TAP	74	96	2
TAP	74	144	1
TAP	74	144	3
TAP	74	192	5
TAP	74	216	4
TAP	74	240	5
TAP	74	288	3
TAP	74	288	6
TAP	74	336	2
TAP	75	0	1
TAP	75	0	3
STR	75	96	2
SI_	75	96	2	96	48	7
TAP	75	96	7
TAP	75	192	2
STR	75	192	5
SI_	75	192	5	96	48	1
TAP	75	288	3
TAP	75	288	5
HLD	75	336	3	96
STR	76	48	4
SI_	76	48	4	96	48	7
STR	76	96	7
SI_	76	96	7	96	48	4
STR	76	144	4
SI_	76	144	4	96	48	1
TAP	76	192	0
STR	76	240	0
SCL	76	240	0	96	48	5
SCR	76	240	0	96	48	3
TAP	76	336	0
TAP	77	96	0
STR	77	96	5
SI_	77	96	5	96	48	0
STR	77	192	2
SI_	77	192	2	96	48	6
TAP	77	192	5
TAP	77	288	2
TAP	77	288	4
HLD	77	336	4	96
STR	78	48	3
SI_	78	48	3	96	48	0
STR	78	96	0
SI_	78	96	0	96	48	3
STR	78	144	3
SI_	78	144	3	96	48	6
TAP	78	192	7
STR	78	240	7
SCL	78	240	7	96	48	4
SCR	78	240	7	96	48	2
TAP	78	336	7
STR	79	96	1
SI_	79	96	1	96	48	5
TAP	79	96	2
TAP	79	192	1
STR	79	192	7
SI_	79	192	7	96	48	3
TAP	79	288	5
TAP	79	288	7
TAP	79	336	5
TAP	80	96	5
STR	80	96	6
SI_	80	96	6	96	48	2
STR	80	192	0
SI_	80	192	0	96	48	4
TAP	80	192	6
TAP	80	288	0
TAP	80	288	2
TAP	80	336	2
TAP	81	48	6
TAP	81	96	5
TAP	81	144	4
TAP	81	144	6
TAP	81	192	2
TAP	81	216	3
TAP	81	240	2
TAP	81	288	1
TAP	81	288	4
BRK	81	336	0
BRK	81	336	7
TAP	82	48	1
TAP	82	48	6
TAP	82	96	2
TAP	82	96	5
TAP	82	144	3
TAP	82	144	4
TAP	82	192	3
TAP	82	216	4
TAP	82	240	2
TAP	82	264	5
BRK	82	288	0
TAP	83	0	1
TAP	83	0	4
TAP	83	48	2
TAP	83	72	3
TAP	83	96	2
STR	83	144	1
SI_	83	144	1	96	48	4
TAP	83	144	4
TAP	83	192	5
TAP	83	240	1
TAP	83	288	5
TAP	83	336	3
STR	83	336	6
SI_	83	336	6	96	48	3
TAP	84	0	2
TAP	84	48	6
TAP	84	96	2
TAP	84	144	0
STR	84	144	5
SI_	84	144	5	96	48	0
TAP	84	192	1
TAP	84	240	2
TAP	84	240	5
TAP	84	288	3
TAP	84	336	4
TAP	85	0	3
TAP	85	0	6
TAP	85	48	5
TAP	85	72	4
TAP	85	96	5
TAP	85	144	3
STR	85	144	6
SCL	85	144	6	96	48	3
TAP	85	192	2
TAP	85	240	6
TAP	85	288	0
TAP	85	336	2
TAP	85	360	3
TAP	86	0	2
TAP	86	48	4
TAP	86	48	5
TAP	86	96	0
TAP	86	96	7
TAP	86	144	1
TAP	86	144	6
TAP	86	192	5
TAP	86	216	4
TAP	86	240	5
TAP	86	288	2
TAP	86	288	3
TAP	86	336	0
TAP	86	336	7
TAP	87	0	3
TAP	87	0	6
TAP	87	48	5
TAP	87	72	4
TAP	87	96	5
TAP	87	144	3
STR	87	144	6
SCL	87	144	6	96	48	3
TAP	87	192	2
TAP	87	240	6
TAP	87	288	1
STR	87	336	2
SCL	87	336	2	96	48	7
TAP	87	336	4
TAP	88	0	5
TAP	88	48	2
TAP	88	96	6
TAP	88	144	0
TAP	88	144	5
TAP	88	192	2
TAP	88	216	3
TAP	88	240	2
TAP	88	288	5
TAP	88	312	4
TAP	88	336	5
TAP	89	0	0
TAP	89	0	2
TAP	89	48	1
TAP	89	96	5
TAP	89	96	7
TAP	89	144	6
TAP	89	192	3
TAP	89	216	4
TAP	89	240	3
TAP	89	288	4
TAP	89	288	5
TAP	89	336	2
TAP	89	336	3
TAP	90	48	3
TAP	90	48	4
TAP	90	96	2
TAP	90	96	5
TAP	90	144	1
TAP	90	144	6
TAP	90	192	0
TAP	90	204	1
TAP	90	216	2
TAP	90	228	3
TAP	90	240	4
TAP	90	252	5
TAP	90	264	6
TAP	90	276	7
BRK	90	288	0
TAP	91	0	3
TAP	91	0	6
TAP	91	48	5
TAP	91	72	4
TAP	91	96	5
TAP	91	144	3
STR	91	144	6
SI_	91	144	6	96	48	3
TAP	91	192	2
TAP	91	240	6
TAP	91	288	2
STR	91	336	1
SI_	91	336	1	96	48	4
TAP	91	336	4
TAP	92	0	5
TAP	92	48	1
TAP	92	96	5
STR	92	144	2
SI_	92	144	2	96	48	7
TAP	92	144	7
TAP	92	192	6
TAP	92	240	2
TAP	92	240	5
TAP	92	288	4
TAP	92	336	3
TAP	93	0	1
TAP	93	0	4
TAP	93	48	2
TAP	93	72	3
TAP	93	96	2
STR	93	144	1
SCR	93	144	1	96	48	4
TAP	93	144	4
TAP	93	192	5
TAP	93	240	1
TAP	93	288	7
TAP	93	336	5
TAP	93	360	4
TAP	94	0	5
TAP	94	48	2
TAP	94	48	3
TAP	94	96	0
TAP	94	96	7
TAP	94	144	1
TAP	94	144	6
TAP	94	192	2
TAP	94	216	3
TAP	94	240	2
TAP	94	288	4
TAP	94	288	5
TAP	94	336	0
TAP	94	336	7
TAP	95	0	1
TAP	95	0	4
TAP	95	48	2
TAP	95	72	3
TAP	95	96	2
STR	95	144	1
SCR	95	144	1	96	48	4
TAP	95	144	4
TAP	95	192	5
TAP	95	240	1
TAP	95	288	6
TAP	95	336	3
STR	95	336	5
SCR	95	336	5	96	48	0
TAP	96	0	2
TAP	96	48	5
TAP	96	96	1
TAP	96	144	2
TAP	96	144	7
TAP	96	192	0
TAP	96	192	5
TAP	96	240	1
TAP	96	240	3
TAP	96	288	4
TAP	96	288	6
BST	96	336	0
SCR	96	336	0	96	624	7
BST	96	336	7
SCL	96	336	7	96	624	0

T_REC_TAP	669
T_REC_BRK	22
T_REC_XTP	0
T_REC_HLD	18
T_REC_XHO	0
T_REC_STR	129
T_REC_BST	3
T_REC_XST	0
T_REC_TTP	0
T_REC_THO	0
T_REC_SLD	137
T_REC_ALL	978
T_NUM_TAP	798
T_NUM_BRK	25
T_NUM_HLD	18
T_NUM_SLD	137
T_NUM_ALL	978
T_JUDGE_TAP	823
T_JUDGE_HLD	42
T_JUDGE_SLD	137
T_JUDGE_ALL	1002
TTM_EACHPAIRS	200
TTM_SCR_TAP	399000
TTM_SCR_BRK	65000
TTM_SCR_HLD	18000
TTM_SCR_SLD	205500
TTM_SCR_ALL	687500
TTM_SCR_S	664450
TTM_SCR_SS	685000
TTM_RAT_ACV	10036

