VERSION	0.00.00	1.03.00
FES_MODE	0
BPM_DEF	182.000	182.000	182.000	182.000
MET_DEF	4	4
RESOLUTION	384
CLK_DEF	384
COMPATIBLE_CODE	MA2

BPM	0	0	182.000
MET	0	0	4	4

TAP	2	0	7
TAP	2	96	1
TAP	2	96	2
TAP	2	192	4
TAP	2	192	5
TAP	2	288	7
TAP	3	0	0
TAP	3	0	6
TAP	3	96	0
TAP	3	96	2
TAP	3	192	7
TAP	3	240	6
TAP	3	288	5
TAP	4	0	0
TAP	4	96	5
TAP	4	96	6
TAP	4	192	2
TAP	4	192	3
TAP	4	288	0
TAP	5	0	1
TAP	5	0	7
TAP	5	96	5
TAP	5	96	7
TAP	5	192	0
TAP	5	240	1
TAP	5	288	2
TAP	6	0	4
TAP	6	96	1
TAP	6	96	2
TAP	6	192	6
TAP	6	192	7
TAP	6	288	4
TAP	7	0	3
TAP	7	0	5
TAP	7	96	1
TAP	7	96	3
TAP	7	192	4
TAP	7	240	5
TAP	7	288	6
TAP	8	0	3
TAP	8	96	5
TAP	8	96	6
TAP	8	192	0
TAP	8	192	1
TAP	8	288	3
STR	9	0	1
SCR	9	0	1	96	96	5
TAP	10	0	7
TAP	10	96	4
TAP	10	96	5
TAP	10	192	1
TAP	10	192	2
TAP	10	288	7
TAP	11	0	0
TAP	11	0	6
TAP	11	96	4
TAP	11	96	6
TAP	11	192	7
TAP	11	240	0
TAP	11	288	1
TAP	12	0	0
TAP	12	96	2
TAP	12	96	3
TAP	12	192	5
TAP	12	192	6
TAP	12	288	0
TAP	13	0	1
TAP	13	0	7
TAP	13	96	1
TAP	13	96	3
TAP	13	192	0
TAP	13	240	7
TAP	13	288	6
TAP	14	0	4
TAP	14	96	6
TAP	14	96	7
TAP	14	192	1
TAP	14	192	2
TAP	14	288	4
TAP	15	0	3
TAP	15	0	5
TAP	15	96	5
TAP	15	96	7
TAP	15	192	4
TAP	15	240	3
TAP	15	288	2
TAP	16	0	3
TAP	16	96	0
TAP	16	96	1
TAP	16	192	5
TAP	16	192	6
TAP	16	288	3
STR	17	0	4
SCR	17	0	4	96	96	0
HLD	18	0	5	96
HLD	18	144	4	144
HLD	18	144	6	144
TAP	19	0	2
TAP	19	96	1
TAP	19	192	0
TAP	19	288	7
HLD	20	0	6	96
HLD	20	144	5	144
HLD	20	144	7	144
HLD	21	0	4	96
HLD	21	144	3	144
HLD	21	144	5	144
HLD	22	0	2	96
HLD	22	144	1	144
HLD	22	144	3	144
TAP	23	0	5
TAP	23	96	6
TAP	23	192	7
TAP	23	288	0
HLD	24	0	1	96
HLD	24	144	0	144
HLD	24	144	2	144
HLD	25	0	3	96
HLD	25	144	2	144
HLD	25	144	4	144
HLD	26	0	5	96
TAP	26	144	4
TAP	26	144	6
TAP	26	240	5
TAP	26	288	4
TAP	27	0	2
TAP	27	96	1
TAP	27	192	0
TAP	27	288	7
HLD	28	0	6	96
TAP	28	144	5
TAP	28	144	7
TAP	28	240	6
TAP	28	288	5
HLD	29	0	4	96
TAP	29	144	3
TAP	29	144	5
TAP	29	240	4
TAP	29	288	3
HLD	30	0	2	96
TAP	30	144	1
TAP	30	144	3
TAP	30	240	2
TAP	30	288	3
TAP	31	0	5
TAP	31	96	6
TAP	31	192	7
TAP	31	288	0
HLD	32	0	1	96
TAP	32	144	0
TAP	32	144	2
TAP	32	240	1
TAP	32	288	2
STR	33	0	1
SI_	33	0	1	96	144	6
STR	33	0	5
SI_	33	0	5	96	144	2
TAP	34	0	1
TAP	34	0	4
HLD	34	96	2	192
TAP	34	144	3
TAP	34	240	3
TAP	34	288	3
TAP	35	0	3
TAP	35	0	6
HLD	35	96	5	192
TAP	35	144	4
TAP	35	240	4
TAP	35	288	4
TAP	36	0	3
TAP	36	0	7
TAP	36	144	2
TAP	36	144	5
STR	36	288	3
SUR	36	288	3	96	288	0
STR	36	288	4
SUL	36	288	4	96	288	7
TAP	38	0	1
TAP	38	0	6
STR	38	96	0
SI_	38	96	0	96	96	2
STR	38	144	7
SI_	38	144	7	96	96	5
TAP	39	0	2
TAP	39	0	5
STR	39	96	4
SI_	39	96	4	96	96	6
STR	39	144	3
SI_	39	144	3	96	96	1
TAP	40	0	1
TAP	40	0	6
STR	40	96	0
SI_	40	96	0	96	96	2
STR	40	144	7
SI_	40	144	7	96	96	5
TAP	41	0	2
TAP	41	0	5
TAP	41	144	3
TAP	41	144	4
BRK	41	288	1
BRK	41	288	6
TAP	42	0	0
TAP	42	0	5
HLD	42	96	6	192
TAP	42	144	7
TAP	42	240	7
TAP	42	288	7
TAP	43	0	2
TAP	43	0	7
HLD	43	96	1	192
TAP	43	144	0
TAP	43	240	0
TAP	43	288	0
TAP	44	0	0
TAP	44	0	4
TAP	44	144	1
TAP	44	144	6
STR	44	288	3
SXR	44	288	3	96	288	0
STR	44	288	4
SXL	44	288	4	96	288	7
TAP	46	0	1
TAP	46	0	6
STR	46	96	0
SI_	46	96	0	96	96	4
STR	46	144	7
SI_	46	144	7	96	96	3
TAP	47	0	2
TAP	47	0	5
STR	47	96	4
SI_	47	96	4	96	96	0
STR	47	144	3
SI_	47	144	3	96	96	7
TAP	48	0	1
TAP	48	0	6
STR	48	96	0
SI_	48	96	0	96	96	4
STR	48	144	7
SI_	48	144	7	96	96	3
TAP	49	0	1
TAP	49	0	6
TAP	49	144	0
TAP	49	144	7
BRK	49	288	1
BRK	49	288	6
STR	50	96	7
SCL	50	96	7	96	192	0
HLD	52	0	1	288
TAP	52	192	3
TAP	52	288	3
TAP	52	336	2
HLD	53	0	5	288
TAP	53	192	7
TAP	53	288	7
TAP	53	336	6
HLD	54	0	2	288
TAP	54	192	4
TAP	54	288	4
TAP	54	336	3
HLD	55	0	6	288
TAP	55	192	0
TAP	55	288	0
TAP	55	336	7
HLD	56	0	2	288
TAP	56	192	4
TAP	56	288	4
TAP	56	336	3
HLD	57	0	5	288
TAP	57	192	3
TAP	57	288	3
TAP	57	336	4
STR	58	0	3
SUR	58	0	3	96	192	2
STR	58	0	4
SCR	58	0	4	96	192	1
HLD	59	0	6	288
TAP	59	192	4
TAP	59	288	4
TAP	59	336	5
HLD	60	0	2	288
TAP	60	192	0
TAP	60	288	0
TAP	60	336	1
HLD	61	0	5	288
TAP	61	192	3
TAP	61	288	3
TAP	61	336	4
HLD	62	0	1	288
TAP	62	192	7
TAP	62	288	7
TAP	62	336	0
HLD	63	0	5	288
TAP	63	192	3
TAP	63	288	3
TAP	63	336	4
HLD	64	0	2	288
TAP	64	192	0
TAP	64	288	0
TAP	64	336	1
STR	65	0	0
SCR	65	0	0	96	384	7
TAP	66	192	2
TAP	66	192	5
TAP	66	288	3
TAP	66	288	4
HLD	67	0	0	96
HLD	67	96	1	96
HLD	67	192	2	96
TAP	67	288	3
HLD	68	0	7	96
HLD	68	96	6	96
HLD	68	192	5	96
TAP	68	288	4
HLD	69	0	1	96
HLD	69	96	2	96
HLD	69	192	3	96
TAP	69	288	4
HLD	70	0	6	96
HLD	70	96	5	96
HLD	70	192	4	96
TAP	70	288	3
TAP	71	0	2
HLD	71	48	2	48
HLD	71	96	3	96
HLD	71	192	4	96
TAP	71	288	5
TAP	72	0	5
HLD	72	48	5	48
HLD	72	96	4	96
HLD	72	192	3	96
TAP	72	288	2
TAP	73	0	1
HLD	73	48	1	48
HLD	73	96	2	96
HLD	73	192	3	96
TAP	73	288	4
STR	74	0	3
SCL	74	0	3	96	192	6
STR	74	0	4
SUL	74	0	4	96	192	5
HLD	75	0	7	96
HLD	75	96	6	96
HLD	75	192	5	96
TAP	75	288	4
HLD	76	0	0	96
HLD	76	96	1	96
HLD	76	192	2	96
TAP	76	288	3
HLD	77	0	6	96
HLD	77	96	5	96
HLD	77	192	4	96
TAP	77	288	3
HLD	78	0	1	96
HLD	78	96	2	96
HLD	78	192	3	96
TAP	78	288	4
TAP	79	0	0
HLD	79	48	0	48
HLD	79	96	7	96
HLD	79	192	6	96
TAP	79	288	5
TAP	80	0	7
HLD	80	48	7	48
HLD	80	96	0	96
HLD	80	192	1	96
TAP	80	288	2
STR	80	336	2
SCR	80	336	2	96	240	7
STR	82	0	7
SF_	82	0	7	96	96	3
BRK	82	288	1
BRK	82	288	5
TAP	83	0	0
TAP	83	48	1
TAP	83	96	2
TAP	83	192	5
TAP	83	192	7
TAP	83	288	2
TAP	83	288	4
TAP	84	0	7
TAP	84	48	6
TAP	84	96	5
TAP	84	192	0
TAP	84	192	2
TAP	84	288	3
TAP	84	288	5
TAP	85	0	1
TAP	85	48	2
TAP	85	96	3
TAP	85	192	0
TAP	85	192	6
TAP	85	288	3
TAP	85	288	5
TAP	86	0	6
TAP	86	48	5
TAP	86	96	4
TAP	86	192	1
TAP	86	192	7
TAP	86	288	2
TAP	86	288	4
TAP	87	0	0
TAP	87	0	7
TAP	87	48	1
TAP	87	96	2
TAP	87	192	5
TAP	87	192	7
TAP	87	288	2
TAP	87	288	4
TAP	88	0	0
TAP	88	0	7
TAP	88	48	6
TAP	88	96	5
TAP	88	192	0
TAP	88	192	2
TAP	88	288	3
TAP	88	288	5
TAP	89	0	0
TAP	89	0	1
TAP	89	48	2
TAP	89	96	3
TAP	89	192	0
TAP	89	192	6
TAP	89	288	3
TAP	89	288	5
STR	89	336	5
SCL	89	336	5	96	144	1
TAP	90	240	0
BRK	90	288	0
TAP	91	0	7
TAP	91	48	6
TAP	91	96	5
TAP	91	192	0
TAP	91	192	2
TAP	91	288	3
TAP	91	288	5
TAP	92	0	0
TAP	92	48	1
TAP	92	96	2
TAP	92	192	5
TAP	92	192	7
TAP	92	288	2
TAP	92	288	4
TAP	93	0	0
TAP	93	48	7
TAP	93	96	6
TAP	93	192	1
TAP	93	192	3
TAP	93	288	4
TAP	93	288	6
TAP	94	0	7
TAP	94	48	0
TAP	94	96	1
TAP	94	192	4
TAP	94	192	6
TAP	94	288	1
TAP	94	288	3
TAP	95	0	0
TAP	95	0	1
TAP	95	48	7
TAP	95	96	5
TAP	95	96	6
TAP	95	192	1
TAP	95	192	3
TAP	95	288	4
TAP	95	288	6
TAP	96	0	6
TAP	96	0	7
TAP	96	48	0
TAP	96	96	1
TAP	96	96	2
TAP	96	192	4
TAP	96	192	6
TAP	96	288	1
TAP	96	288	3
STR	96	336	1
SCR	96	336	1	96	624	0

T_REC_TAP	331
T_REC_BRK	7
T_REC_XTP	0
T_REC_HLD	78
T_REC_XHO	0
T_REC_STR	30
T_REC_BST	0
T_REC_XST	0
T_REC_TTP	0
T_REC_THO	0
T_REC_SLD	30
T_REC_ALL	476
T_NUM_TAP	361
T_NUM_BRK	7
T_NUM_HLD	78
T_NUM_SLD	30
T_NUM_ALL	476
T_JUDGE_TAP	368
T_JUDGE_HLD	219
T_JUDGE_SLD	30
T_JUDGE_ALL	617
TTM_EACHPAIRS	100
TTM_SCR_TAP	180500
TTM_SCR_BRK	18200
TTM_SCR_HLD	78000
TTM_SCR_SLD	45000
TTM_SCR_ALL	321700
TTM_SCR_S	311400
TTM_SCR_SS	321000
TTM_RAT_ACV	10021

