VERSION	0.00.00	1.03.00
FES_MODE	0
BPM_DEF	182.000	182.000	182.000	182.000
MET_DEF	4	4
RESOLUTION	384
CLK_DEF	384
COMPATIBLE_CODE	MA2

BPM	0	0	182.000
MET	0	0	4	4

TAP	2	0	2
TAP	2	96	2
TAP	2	192	2
TAP	2	192	3
TAP	3	0	5
TAP	3	96	5
TAP	3	192	4
TAP	3	192	5
TAP	4	0	3
TAP	4	96	4
TAP	4	192	2
TAP	4	288	5
TAP	5	0	3
TAP	5	0	4
TAP	5	96	3
TAP	5	96	4
TAP	5	192	2
TAP	5	192	5
TAP	6	0	2
TAP	6	96	3
TAP	6	192	2
TAP	6	192	3
TAP	7	0	5
TAP	7	96	4
TAP	7	192	4
TAP	7	192	5
TAP	8	0	3
TAP	8	0	4
TAP	8	96	2
TAP	8	96	5
TAP	8	192	1
TAP	8	192	6
TAP	8	288	0
TAP	8	288	7
TAP	9	0	0
TAP	9	96	7
TAP	9	192	1
TAP	9	192	6
TAP	10	0	1
TAP	10	96	1
TAP	10	192	0
TAP	10	192	1
TAP	11	0	6
TAP	11	96	6
TAP	11	192	6
TAP	11	192	7
TAP	12	0	0
TAP	12	96	7
TAP	12	192	1
TAP	12	288	6
TAP	13	0	0
TAP	13	0	7
TAP	13	96	0
TAP	13	96	7
TAP	13	192	1
TAP	13	192	6
TAP	14	0	1
TAP	14	96	0
TAP	14	192	0
TAP	14	192	1
TAP	15	0	6
TAP	15	96	7
TAP	15	192	6
TAP	15	192	7
TAP	16	0	0
TAP	16	0	7
TAP	16	96	1
TAP	16	96	6
TAP	16	192	2
TAP	16	192	5
TAP	16	288	3
TAP	16	288	4
TAP	17	0	3
TAP	17	96	4
TAP	17	192	2
TAP	17	192	5
TAP	18	0	1
TAP	18	96	1
TAP	18	192	0
TAP	18	192	1
TAP	19	0	6
TAP	19	96	6
TAP	19	192	6
TAP	19	192	7
TAP	20	0	1
TAP	20	96	1
TAP	20	192	1
TAP	20	192	2
TAP	21	0	6
TAP	21	96	6
TAP	21	192	5
TAP	21	192	6
TAP	22	0	2
TAP	22	96	2
TAP	22	192	2
TAP	22	192	3
TAP	23	0	5
TAP	23	96	5
TAP	23	192	4
TAP	23	192	5
TAP	24	0	2
TAP	24	96	2
TAP	24	192	1
TAP	24	192	2
TAP	25	0	5
TAP	25	96	5
TAP	25	192	5
TAP	25	192	6
TAP	26	0	1
TAP	26	96	0
TAP	26	96	1
TAP	26	192	0
TAP	26	192	1
TAP	27	0	6
TAP	27	96	6
TAP	27	96	7
TAP	27	192	6
TAP	27	192	7
TAP	28	0	1
TAP	28	96	1
TAP	28	96	2
TAP	28	192	1
TAP	28	192	2
TAP	29	0	6
TAP	29	96	5
TAP	29	96	6
TAP	29	192	5
TAP	29	192	6
TAP	30	0	2
TAP	30	96	2
TAP	30	96	3
TAP	30	192	2
TAP	30	192	3
TAP	31	0	5
TAP	31	96	4
TAP	31	96	5
TAP	31	192	4
TAP	31	192	5
TAP	32	0	2
TAP	32	96	1
TAP	32	96	2
TAP	32	192	1
TAP	32	192	2
TAP	33	0	5
TAP	33	96	5
TAP	33	96	6
TAP	33	192	5
TAP	33	192	6
TAP	34	0	0
TAP	34	96	1
TAP	34	192	2
TAP	34	288	2
TAP	34	288	3
TAP	35	0	7
TAP	35	96	6
TAP	35	192	5
TAP	35	288	4
TAP	35	288	5
HLD	36	0	6	144
HLD	36	0	7	144
HLD	36	288	0	144
HLD	36	288	5	144
TAP	37	192	0
TAP	37	288	0
TAP	38	0	7
TAP	38	96	6
TAP	38	192	5
TAP	38	288	4
TAP	38	288	5
TAP	39	0	0
TAP	39	96	1
TAP	39	192	2
TAP	39	288	2
TAP	39	288	3
HLD	40	0	0	144
HLD	40	0	1	144
TAP	40	288	0
TAP	40	288	1
HLD	41	0	2	144
HLD	41	0	7	144
TAP	41	288	2
TAP	41	288	7
TAP	42	0	3
TAP	42	96	2
TAP	42	192	1
TAP	42	288	0
TAP	42	288	1
TAP	43	0	4
TAP	43	96	5
TAP	43	192	6
TAP	43	288	6
TAP	43	288	7
HLD	44	0	4	144
HLD	44	0	5	144
HLD	44	288	3	144
HLD	44	288	6	144
TAP	45	192	3
TAP	45	288	3
TAP	46	0	4
TAP	46	96	5
TAP	46	192	6
TAP	46	288	6
TAP	46	288	7
TAP	47	0	3
TAP	47	96	2
TAP	47	192	1
TAP	47	288	0
TAP	47	288	1
HLD	48	0	2	144
HLD	48	0	3	144
TAP	48	288	2
TAP	48	288	3
HLD	49	0	1	144
HLD	49	0	4	144
BRK	49	288	1
STR	49	288	4
SI_	49	288	4	96	288	7
STR	51	0	0
SCR	51	0	0	96	480	7
TAP	53	0	7
TAP	53	96	0
TAP	53	192	1
TAP	53	288	2
TAP	53	288	3
TAP	54	0	0
TAP	54	96	7
TAP	54	192	4
TAP	54	192	6
TAP	55	0	3
TAP	55	96	2
TAP	55	192	1
TAP	55	288	0
TAP	55	288	7
TAP	56	0	4
TAP	56	96	5
TAP	56	192	6
TAP	56	288	0
TAP	56	288	7
TAP	57	0	4
TAP	57	96	3
TAP	57	192	2
TAP	57	288	0
TAP	57	288	1
TAP	58	0	3
TAP	58	96	4
TAP	58	192	5
TAP	58	192	7
TAP	59	0	1
TAP	59	96	0
TAP	59	192	0
TAP	59	192	1
TAP	59	288	0
TAP	59	288	1
TAP	60	0	6
TAP	60	96	7
TAP	60	192	6
TAP	60	192	7
TAP	60	288	6
TAP	60	288	7
TAP	61	0	2
TAP	61	96	3
TAP	61	192	2
TAP	61	192	3
TAP	61	288	2
TAP	61	288	3
TAP	62	0	5
TAP	62	96	4
TAP	62	192	4
TAP	62	192	5
TAP	62	288	4
TAP	62	288	5
TAP	63	0	1
TAP	63	96	0
TAP	63	192	0
TAP	63	192	1
TAP	63	288	2
TAP	63	288	7
TAP	64	0	6
TAP	64	96	7
TAP	64	192	6
TAP	64	192	7
TAP	64	288	0
TAP	64	288	5
BRK	65	0	1
STR	65	0	6
SCR	65	0	6	96	288	1
TAP	66	192	0
TAP	66	288	0
TAP	67	0	1
TAP	67	96	1
TAP	67	192	0
TAP	67	288	0
TAP	68	0	1
TAP	68	96	0
TAP	68	192	2
TAP	68	192	7
TAP	69	0	5
TAP	69	96	5
TAP	69	192	4
TAP	69	288	4
TAP	70	0	5
TAP	70	96	4
TAP	70	192	3
TAP	70	192	6
TAP	71	0	6
TAP	71	96	6
TAP	71	192	7
TAP	71	288	7
TAP	72	0	6
TAP	72	96	7
TAP	72	192	0
TAP	72	192	5
TAP	73	0	2
TAP	73	96	2
TAP	73	192	3
TAP	73	288	3
TAP	74	0	2
TAP	74	96	3
TAP	74	192	1
TAP	74	192	4
TAP	75	0	6
TAP	75	96	6
TAP	75	192	7
TAP	75	288	7
TAP	76	0	6
TAP	76	96	7
TAP	76	192	0
TAP	76	192	5
TAP	77	0	2
TAP	77	96	2
TAP	77	192	3
TAP	77	288	3
TAP	78	0	2
TAP	78	96	3
TAP	78	192	1
TAP	78	192	4
TAP	79	0	1
TAP	79	96	1
TAP	79	192	0
TAP	79	288	0
TAP	80	0	1
TAP	80	96	0
TAP	80	192	0
TAP	80	192	1
TAP	80	288	0
TAP	80	288	1
STR	81	0	2
SCR	81	0	2	96	384	6
BRK	81	0	7
HLD	83	0	6	96
HLD	83	0	7	96
TAP	83	192	6
TAP	83	192	7
TAP	83	288	0
TAP	83	288	5
HLD	84	0	0	96
HLD	84	0	1	96
TAP	84	192	0
TAP	84	192	1
TAP	84	288	2
TAP	84	288	7
HLD	85	0	4	96
HLD	85	0	5	96
TAP	85	192	4
TAP	85	192	5
TAP	85	288	3
TAP	85	288	6
HLD	86	0	2	96
HLD	86	0	3	96
TAP	86	192	2
TAP	86	192	3
TAP	86	288	1
TAP	86	288	4
HLD	87	0	6	192
TAP	87	192	7
TAP	87	288	0
TAP	87	288	5
HLD	88	0	1	192
TAP	88	192	0
TAP	88	288	2
TAP	88	288	7
HLD	89	0	5	192
TAP	89	192	4
TAP	89	288	3
TAP	89	288	6
HLD	90	0	2	192
TAP	90	192	3
TAP	90	288	1
TAP	90	288	4
HLD	91	0	5	288
TAP	91	192	4
TAP	91	288	3
HLD	92	0	2	288
TAP	92	192	3
TAP	92	288	4
HLD	93	0	6	288
TAP	93	192	7
TAP	93	288	0
HLD	94	0	1	288
TAP	94	192	0
TAP	94	288	7
TAP	95	0	6
TAP	95	0	7
TAP	95	96	6
TAP	95	96	7
TAP	95	192	0
TAP	95	192	1
TAP	95	288	0
TAP	95	288	1
TAP	96	0	0
TAP	96	0	7
TAP	96	96	1
TAP	96	96	6
TAP	96	192	2
TAP	96	192	5
STR	96	288	3
SCL	96	288	3	96	672	4
TAP	96	288	4

T_REC_TAP	373
T_REC_BRK	3
T_REC_XTP	0
T_REC_HLD	32
T_REC_XHO	0
T_REC_STR	5
T_REC_BST	0
T_REC_XST	0
T_REC_TTP	0
T_REC_THO	0
T_REC_SLD	5
T_REC_ALL	418
T_NUM_TAP	378
T_NUM_BRK	3
T_NUM_HLD	32
T_NUM_SLD	5
T_NUM_ALL	418
T_JUDGE_TAP	381
T_JUDGE_HLD	104
T_JUDGE_SLD	5
T_JUDGE_ALL	490
TTM_EACHPAIRS	120
TTM_SCR_TAP	189000
TTM_SCR_BRK	7800
TTM_SCR_HLD	32000
TTM_SCR_SLD	7500
TTM_SCR_ALL	236300
TTM_SCR_S	228950
TTM_SCR_SS	236000
TTM_RAT_ACV	10012

