VERSION	0.00.00	1.03.00
FES_MODE	0
BPM_DEF	182.000	182.000	182.000	182.000
MET_DEF	4	4
RESOLUTION	384
CLK_DEF	384
COMPATIBLE_CODE	MA2

BPM	0	0	182.000
MET	0	0	4	4

TAP	2	0	0
TAP	2	96	0
TAP	2	192	0
TAP	3	0	0
TAP	3	96	0
TAP	3	192	0
TAP	4	0	7
TAP	4	96	7
TAP	4	192	7
TAP	5	0	7
TAP	5	96	7
TAP	5	192	7
TAP	6	0	6
TAP	6	96	6
TAP	6	192	6
TAP	7	0	6
TAP	7	96	6
TAP	7	192	6
TAP	8	0	5
TAP	8	96	5
TAP	8	192	5
BRK	9	0	3
BRK	9	0	4
TAP	10	0	4
TAP	10	96	4
TAP	10	192	4
TAP	11	0	5
TAP	11	96	5
TAP	11	192	5
TAP	12	0	6
TAP	12	96	6
TAP	12	192	6
TAP	13	0	7
TAP	13	96	7
TAP	13	192	7
TAP	14	0	0
TAP	14	96	0
TAP	14	192	0
TAP	15	0	1
TAP	15	96	1
TAP	15	192	1
TAP	16	0	2
TAP	16	96	2
TAP	16	192	2
HLD	17	0	3	192
HLD	17	0	4	192
STR	18	0	3
SI_	18	0	3	96	288	0
STR	20	0	4
SI_	20	0	4	96	288	7
STR	22	0	2
SI_	22	0	2	96	288	7
STR	24	0	5
SI_	24	0	5	96	288	0
STR	26	0	1
SI_	26	0	1	96	288	4
STR	28	0	6
SI_	28	0	6	96	288	3
STR	30	0	0
SI_	30	0	0	96	288	4
STR	32	0	7
SI_	32	0	7	96	288	3
TAP	34	0	0
TAP	34	192	0
TAP	35	0	1
TAP	35	192	1
HLD	36	0	2	288
HLD	36	0	3	288
TAP	38	0	4
TAP	38	96	4
TAP	38	192	4
TAP	39	0	5
TAP	39	96	5
TAP	39	192	5
TAP	40	0	6
TAP	40	96	6
TAP	40	192	6
HLD	41	0	0	288
HLD	41	0	7	288
TAP	42	0	7
TAP	42	96	7
TAP	42	192	7
TAP	43	0	6
TAP	43	96	6
TAP	43	192	6
HLD	44	0	4	288
HLD	44	0	5	288
TAP	46	0	3
TAP	46	96	3
TAP	46	192	3
TAP	47	0	2
TAP	47	96	2
TAP	47	192	2
TAP	48	0	1
TAP	48	96	1
TAP	48	192	1
HLD	49	0	0	960
HLD	49	0	7	960
TAP	52	0	1
TAP	52	96	1
TAP	52	192	2
TAP	53	0	2
TAP	53	96	2
TAP	53	192	3
TAP	54	0	3
TAP	54	96	3
TAP	54	192	4
TAP	55	0	4
TAP	55	0	5
TAP	55	96	4
TAP	55	96	5
TAP	55	192	4
TAP	55	192	5
TAP	56	0	2
TAP	56	0	3
TAP	56	96	2
TAP	56	96	3
TAP	56	192	2
TAP	56	192	3
TAP	57	0	4
TAP	57	96	3
TAP	57	192	4
HLD	58	0	2	192
HLD	58	0	5	192
TAP	59	0	4
TAP	59	96	4
TAP	59	192	5
TAP	60	0	5
TAP	60	96	5
TAP	60	192	6
TAP	61	0	6
TAP	61	96	6
TAP	61	192	7
TAP	62	0	7
TAP	62	96	7
TAP	62	192	0
TAP	63	0	0
TAP	63	0	1
TAP	63	96	0
TAP	63	96	1
TAP	63	192	0
TAP	63	192	1
TAP	64	0	6
TAP	64	0	7
TAP	64	96	6
TAP	64	96	7
TAP	64	192	6
TAP	64	192	7
HLD	65	0	0	384
HLD	65	0	7	384
TAP	67	0	7
TAP	67	96	7
TAP	67	192	0
TAP	67	192	7
TAP	68	0	6
TAP	68	96	6
TAP	68	192	6
TAP	68	192	7
TAP	69	0	5
TAP	69	96	5
TAP	69	192	4
TAP	69	192	5
TAP	70	0	4
TAP	70	96	4
TAP	70	192	3
TAP	70	192	4
TAP	71	0	2
TAP	71	0	3
TAP	71	96	2
TAP	71	96	3
TAP	71	192	2
TAP	71	192	3
TAP	72	0	4
TAP	72	0	5
TAP	72	96	4
TAP	72	96	5
TAP	72	192	4
TAP	72	192	5
TAP	73	0	3
TAP	73	96	4
TAP	73	192	3
HLD	74	0	4	192
HLD	74	0	5	192
TAP	75	0	3
TAP	75	96	3
TAP	75	192	3
TAP	75	192	4
TAP	76	0	2
TAP	76	96	2
TAP	76	192	2
TAP	76	192	3
TAP	77	0	1
TAP	77	96	1
TAP	77	192	0
TAP	77	192	1
TAP	78	0	0
TAP	78	96	0
TAP	78	192	0
TAP	78	192	7
TAP	79	0	6
TAP	79	0	7
TAP	79	96	6
TAP	79	96	7
TAP	79	192	6
TAP	79	192	7
TAP	80	0	0
TAP	80	0	1
TAP	80	96	0
TAP	80	96	1
TAP	80	192	0
TAP	80	192	1
STR	81	0	0
SI_	81	0	0	96	288	3
STR	81	0	7
SI_	81	0	7	96	288	4
TAP	83	0	3
TAP	83	96	3
TAP	83	192	3
TAP	83	288	3
TAP	84	0	2
TAP	84	96	2
TAP	84	192	2
TAP	84	192	3
TAP	85	0	1
TAP	85	96	1
TAP	85	192	1
TAP	85	288	1
TAP	86	0	0
TAP	86	96	0
TAP	86	192	0
TAP	86	192	7
TAP	87	0	7
TAP	87	96	7
TAP	87	192	7
TAP	87	288	7
TAP	88	0	6
TAP	88	96	6
TAP	88	192	6
TAP	88	192	7
TAP	89	0	5
TAP	89	96	5
TAP	89	192	5
BRK	90	0	3
BRK	90	0	4
TAP	91	0	4
TAP	91	96	4
TAP	91	192	5
TAP	91	288	5
TAP	92	0	6
TAP	92	96	6
TAP	92	192	0
TAP	92	192	7
TAP	93	0	0
TAP	93	96	0
TAP	93	192	1
TAP	93	288	1
TAP	94	0	2
TAP	94	96	2
TAP	94	192	3
TAP	94	192	4
TAP	95	0	3
TAP	95	96	3
TAP	95	192	4
TAP	95	288	4
TAP	96	0	3
TAP	96	96	4
TAP	96	192	3
HLD	96	288	4	672

T_REC_TAP	227
T_REC_BRK	4
T_REC_XTP	0
T_REC_HLD	17
T_REC_XHO	0
T_REC_STR	10
T_REC_BST	0
T_REC_XST	0
T_REC_TTP	0
T_REC_THO	0
T_REC_SLD	10
T_REC_ALL	268
T_NUM_TAP	237
T_NUM_BRK	4
T_NUM_HLD	17
T_NUM_SLD	10
T_NUM_ALL	268
T_JUDGE_TAP	241
T_JUDGE_HLD	130
T_JUDGE_SLD	10
T_JUDGE_ALL	381
TTM_EACHPAIRS	48
TTM_SCR_TAP	118500
TTM_SCR_BRK	10400
TTM_SCR_HLD	17000
TTM_SCR_SLD	15000
TTM_SCR_ALL	160900
TTM_SCR_S	155700
TTM_SCR_SS	160500
TTM_RAT_ACV	10024

