VERSION	0.00.00	1.03.00
FES_MODE	0
BPM_DEF	150.000	150.000	150.000	150.000
MET_DEF	4	4
RESOLUTION	384
CLK_DEF	384
COMPATIBLE_CODE	MA2

BPM	0	0	150.000
MET	0	0	4	4
MET	23	0	4	2
MET	23	192	4	4

TAP	1	0	6
TAP	1	96	6
TAP	1	192	1
TAP	1	288	1
TAP	2	0	7
TAP	2	96	0
TAP	2	144	0
TAP	2	168	7
TAP	2	192	0
TAP	2	204	1
TAP	2	216	2
TAP	2	228	3
TAP	2	240	4
TAP	2	252	5
TAP	2	264	6
TAP	2	276	7
TAP	2	288	0
TAP	2	300	1
TAP	2	312	2
TAP	2	324	3
TAP	2	336	4
TAP	2	348	5
TAP	2	360	6
TAP	2	372	7
HLD	3	0	0	96
TAP	3	96	3
HLD	3	144	5	96
TAP	3	240	4
TAP	3	288	1
HLD	4	0	7	96
TAP	4	96	4
HLD	4	144	2	96
TAP	4	240	3
TAP	4	288	6
STR	5	0	7
SCL	5	0	7	96	48	4
STR	5	48	4
SXL	5	48	4	96	48	6
STR	5	192	0
SCR	5	192	0	96	48	3
STR	5	240	3
SXR	5	240	3	96	48	1
STR	6	0	7
SCL	6	0	7	96	48	4
STR	6	48	4
SXL	6	48	4	96	48	6
STR	6	192	0
SF_	6	192	0	96	48	4
HLD	7	0	7	96
TAP	7	96	4
HLD	7	144	2	96
TAP	7	240	3
TAP	7	288	6
HLD	8	0	0	96
TAP	8	96	3
HLD	8	144	5	96
TAP	8	240	4
TAP	8	288	1
STR	9	0	0
SCR	9	0	0	96	48	3
STR	9	48	3
SXR	9	48	3	96	48	1
STR	9	192	7
SCL	9	192	7	96	48	4
STR	9	240	4
SXL	9	240	4	96	48	6
STR	10	0	0
SCR	10	0	0	96	48	3
STR	10	48	3
SXR	10	48	3	96	48	1
STR	10	192	7
SF_	10	192	7	96	48	3
HLD	11	0	3	96
TAP	11	96	0
HLD	11	144	6	96
TAP	11	240	7
TAP	11	288	2
HLD	12	0	4	96
TAP	12	96	7
HLD	12	144	1	96
TAP	12	240	0
TAP	12	288	5
STR	13	0	4
SCR	13	0	4	96	48	7
STR	13	48	7
SXR	13	48	7	96	48	5
STR	13	192	3
SCL	13	192	3	96	48	0
STR	13	240	0
SXL	13	240	0	96	48	2
STR	14	0	4
SCR	14	0	4	96	48	7
STR	14	48	7
SXR	14	48	7	96	48	5
STR	14	192	3
SF_	14	192	3	96	48	7
HLD	15	0	4	96
TAP	15	96	7
HLD	15	144	1	96
TAP	15	240	0
TAP	15	288	5
HLD	16	0	3	96
TAP	16	96	0
HLD	16	144	6	96
TAP	16	240	7
TAP	16	288	2
STR	17	0	3
SCL	17	0	3	96	48	0
STR	17	48	0
SXL	17	48	0	96	48	2
STR	17	192	4
SCR	17	192	4	96	48	7
STR	17	240	7
SXR	17	240	7	96	48	5
STR	18	0	3
SCL	18	0	3	96	48	0
STR	18	48	0
SXL	18	48	0	96	48	2
STR	18	192	4
SF_	18	192	4	96	48	0
STR	19	0	1
SI_	19	0	1	96	48	4
TAP	19	48	0
TAP	19	96	7
STR	19	144	6
SI_	19	144	6	96	48	3
TAP	19	192	7
HLD	19	240	0	96
STR	19	336	1
SCL	19	336	1	96	48	6
TAP	20	48	4
TAP	20	96	4
STR	20	144	3
SI_	20	144	3	96	48	6
TAP	20	192	2
HLD	20	240	1	96
STR	20	336	0
SI_	20	336	0	96	48	5
TAP	21	0	1
TAP	21	48	2
TAP	21	96	3
STR	21	144	4
SI_	21	144	4	96	48	1
TAP	21	192	5
HLD	21	240	6	96
STR	21	336	7
SI_	21	336	7	96	48	3
TAP	22	48	6
TAP	22	96	5
STR	22	144	4
SI_	22	144	4	96	48	1
TAP	22	192	5
TAP	22	240	6
TAP	22	288	7
TAP	22	336	6
TAP	23	0	4
TAP	23	24	3
TAP	23	48	5
TAP	23	72	2
TAP	23	96	6
TAP	23	120	1
TAP	23	144	7
TAP	23	168	0
STR	23	192	7
SCL	23	192	7	96	48	3
TAP	23	240	2
TAP	23	288	1
STR	23	336	0
SCR	23	336	0	96	48	4
TAP	24	0	6
STR	24	48	7
SI_	24	48	7	96	48	3
TAP	24	96	7
TAP	24	144	1
STR	24	192	0
SCR	24	192	0	96	48	4
TAP	24	240	5
TAP	24	288	6
STR	24	336	7
SCL	24	336	7	96	48	3
TAP	25	0	2
STR	25	48	1
SI_	25	48	1	96	48	5
TAP	25	96	1
TAP	25	144	4
STR	25	192	3
SUR	25	192	3	96	96	0
STR	25	288	0
SCR	25	288	0	96	96	3
STR	26	0	3
SCR	26	0	3	96	96	6
STR	26	96	6
SUR	26	96	6	96	96	3
STR	26	192	3
SCL	26	192	3	96	96	7
SCR	26	192	3	96	96	7
TAP	27	96	0
TAP	27	96	6
TAP	27	144	7
STR	27	192	0
SCR	27	192	0	96	48	4
TAP	27	240	5
TAP	27	288	6
STR	27	336	7
SCL	27	336	7	96	48	3
TAP	28	0	1
STR	28	48	0
SI_	28	48	0	96	48	4
TAP	28	96	0
TAP	28	144	6
STR	28	192	7
SCL	28	192	7	96	48	3
TAP	28	240	2
TAP	28	288	1
STR	28	336	0
SCR	28	336	0	96	48	4
TAP	29	0	5
STR	29	48	6
SI_	29	48	6	96	48	2
TAP	29	96	6
TAP	29	144	3
STR	29	192	4
SUL	29	192	4	96	96	7
STR	29	288	7
SCL	29	288	7	96	96	4
STR	30	0	4
SCL	30	0	4	96	96	1
STR	30	96	1
SUL	30	96	1	96	96	4
STR	30	192	4
SCL	30	192	4	96	96	0
SCR	30	192	4	96	96	0
TAP	31	96	3
TAP	31	96	5
TAP	31	144	4
STR	31	192	3
SCL	31	192	3	96	48	7
TAP	31	240	6
TAP	31	288	5
STR	31	336	4
SCR	31	336	4	96	48	0
TAP	32	0	2
STR	32	48	3
SI_	32	48	3	96	48	7
TAP	32	96	3
TAP	32	144	5
STR	32	192	4
SCR	32	192	4	96	48	0
TAP	32	240	1
TAP	32	288	2
STR	32	336	3
SCL	32	336	3	96	48	7
TAP	33	0	5
STR	33	48	4
SI_	33	48	4	96	48	0
TAP	33	96	4
TAP	33	144	2
STR	33	192	3
SCL	33	192	3	96	96	0
STR	33	288	0
SV_	33	288	0	96	96	6
STR	34	0	6
SCL	34	0	6	96	96	3
STR	34	96	3
SI_	34	96	3	96	96	7
STR	34	192	7
SCL	34	192	7	96	96	3
SCR	34	192	7	96	96	3
TAP	35	96	1
TAP	35	96	5
TAP	35	144	3
STR	35	192	4
SCR	35	192	4	96	48	0
TAP	35	240	1
TAP	35	288	2
STR	35	336	3
SCL	35	336	3	96	48	7
TAP	36	0	5
STR	36	48	4
SI_	36	48	4	96	48	0
TAP	36	96	4
TAP	36	144	2
STR	36	192	3
SCL	36	192	3	96	48	7
TAP	36	240	6
TAP	36	288	5
STR	36	336	4
SCR	36	336	4	96	48	0
TAP	37	0	2
STR	37	48	3
SI_	37	48	3	96	48	7
TAP	37	96	3
TAP	37	144	5
STR	37	192	4
SCR	37	192	4	96	96	7
STR	37	288	7
SV_	37	288	7	96	96	1
STR	38	0	1
SCR	38	0	1	96	96	4
STR	38	96	4
SI_	38	96	4	96	96	0
STR	38	192	0
SCL	38	192	0	96	96	4
SCR	38	192	0	96	96	4
BRK	39	96	2
BRK	39	96	6
HLD	39	192	1	96
TAP	39	288	2
TAP	39	336	1
TAP	40	0	0
TAP	40	48	4
STR	40	96	5
SI_	40	96	5	96	48	0
TAP	40	144	3
STR	40	192	2
SI_	40	192	2	96	48	7
STR	40	288	4
SI_	40	288	4	96	48	0
STR	41	0	3
SI_	41	0	3	96	48	7
TAP	41	96	4
HLD	41	192	6	96
TAP	41	288	5
TAP	41	336	6
TAP	42	0	7
TAP	42	48	3
STR	42	96	2
SCL	42	96	2	96	144	6
TAP	42	144	4
TAP	42	192	5
STR	42	288	5
SXR	42	288	5	96	144	2
HLD	43	192	0	72
HLD	43	264	2	72
HLD	43	336	4	72
TAP	44	24	3
TAP	44	96	1
TAP	44	96	5
HLD	44	192	7	72
HLD	44	264	5	72
HLD	44	336	3	72
TAP	45	24	4
TAP	45	96	2
TAP	45	96	6
STR	45	192	6
SI_	45	192	6	96	48	2
STR	45	192	7
SI_	45	192	7	96	48	3
STR	46	0	0
SI_	46	0	0	96	48	4
STR	46	0	1
SI_	46	0	1	96	48	5
HLD	46	192	7	72
HLD	46	264	5	72
HLD	46	336	3	72
TAP	47	24	4
TAP	47	96	2
TAP	47	96	6
HLD	47	192	3	72
HLD	47	264	5	72
HLD	47	336	7	72
TAP	48	24	0
TAP	48	96	2
TAP	48	96	6
HLD	48	192	4	72
HLD	48	264	2	72
HLD	48	336	0	72
TAP	49	24	7
TAP	49	96	1
TAP	49	96	5
STR	49	192	4
SI_	49	192	4	96	48	0
STR	49	288	1
SI_	49	288	1	96	48	4
STR	50	0	5
SI_	50	0	5	96	48	0
STR	50	96	3
SCL	50	96	3	96	144	4
TAP	50	192	4
TAP	51	0	7
TAP	51	48	0
TAP	51	96	1
TAP	51	96	6
HLD	51	192	2	72
HLD	51	264	1	72
TAP	51	336	0
STR	52	24	3
SCL	52	24	3	96	48	0
SCR	52	24	3	96	48	6
TAP	52	24	6
HLD	52	192	5	72
HLD	52	264	6	72
TAP	52	336	7
TAP	53	24	1
STR	53	24	4
SCL	53	24	4	96	48	1
SCR	53	24	4	96	48	7
HLD	53	192	2	72
HLD	53	264	1	72
TAP	53	336	0
TAP	54	24	3
TAP	54	24	6
TAP	54	96	1
TAP	54	96	4
STR	54	192	5
SI_	54	192	5	96	48	0
STR	54	288	4
SI_	54	288	4	96	48	1
STR	55	0	7
SI_	55	0	7	96	48	2
SI_	55	0	7	96	48	4
HLD	55	192	5	72
HLD	55	264	6	72
TAP	55	336	7
TAP	56	24	1
STR	56	24	4
SCL	56	24	4	96	48	1
SCR	56	24	4	96	48	7
HLD	56	192	2	72
HLD	56	264	1	72
TAP	56	336	0
TAP	57	24	3
TAP	57	24	6
STR	57	96	3
SI_	57	96	3	96	48	7
TAP	57	96	4
STR	57	192	4
SI_	57	192	4	96	48	0
STR	57	288	3
SI_	57	288	3	96	48	1
STR	58	0	4
SI_	58	0	4	96	48	6
STR	58	96	3
SCL	58	96	3	96	192	4
TAP	58	192	4
TAP	59	96	1
TAP	59	96	6
TAP	59	192	3
TAP	59	216	4
TAP	59	240	2
TAP	59	264	5
TAP	59	288	1
TAP	59	312	6
TAP	59	336	0
TAP	59	360	7
TAP	60	0	0
TAP	60	12	1
TAP	60	24	2
TAP	60	36	3
TAP	60	48	4
TAP	60	60	5
TAP	60	72	6
TAP	60	84	7
TAP	60	96	0
TAP	60	108	1
TAP	60	120	2
TAP	60	132	3
TAP	60	144	4
TAP	60	156	5
TAP	60	168	6
TAP	60	180	7
STR	60	192	0
SUR	60	192	0	96	48	5
TAP	60	240	5
TAP	60	288	6
STR	60	336	7
SUL	60	336	7	96	48	2
TAP	61	0	1
STR	61	48	0
SCR	61	48	0	96	48	4
TAP	61	96	0
TAP	61	144	6
STR	61	192	7
SUL	61	192	7	96	48	2
TAP	61	240	2
TAP	61	288	1
STR	61	336	0
SUR	61	336	0	96	48	5
TAP	62	0	6
STR	62	48	7
SCL	62	48	7	96	48	3
TAP	62	96	7
TAP	62	144	1
STR	62	192	0
SI_	62	192	0	96	48	4
TAP	62	288	0
STR	62	288	7
SI_	62	288	7	96	48	5
STR	63	0	1
SI_	63	0	1	96	48	3
TAP	63	0	7
TAP	63	96	1
STR	63	96	7
SI_	63	96	7	96	48	3
STR	63	192	0
SXR	63	192	0	96	144	5
TAP	63	192	7
TAP	64	96	1
TAP	64	96	7
TAP	64	144	0
STR	64	192	7
SUL	64	192	7	96	48	2
TAP	64	240	2
TAP	64	288	1
STR	64	336	0
SUR	64	336	0	96	48	5
TAP	65	0	6
STR	65	48	7
SCL	65	48	7	96	48	3
TAP	65	96	7
TAP	65	144	1
STR	65	192	0
SUR	65	192	0	96	48	5
TAP	65	240	5
TAP	65	288	6
STR	65	336	7
SUL	65	336	7	96	48	2
TAP	66	0	1
STR	66	48	0
SCR	66	48	0	96	48	4
TAP	66	96	0
TAP	66	144	6
STR	66	192	7
SI_	66	192	7	96	48	3
STR	66	288	0
SI_	66	288	0	96	48	2
TAP	66	288	7
TAP	67	0	0
STR	67	0	6
SI_	67	0	6	96	48	4
STR	67	96	0
SI_	67	96	0	96	48	4
TAP	67	96	6
TAP	67	192	0
STR	67	192	7
SXL	67	192	7	96	144	2
TAP	68	96	2
TAP	68	96	4
TAP	68	144	3
STR	68	192	4
SV_	68	192	4	96	48	6
TAP	68	240	0
TAP	68	288	1
STR	68	336	2
SCL	68	336	2	96	48	7
TAP	69	0	5
STR	69	48	6
SUR	69	48	6	96	48	2
TAP	69	96	6
TAP	69	144	2
STR	69	192	3
SV_	69	192	3	96	48	1
TAP	69	240	7
TAP	69	288	6
STR	69	336	5
SCR	69	336	5	96	48	0
TAP	70	0	2
STR	70	48	1
SUL	70	48	1	96	48	5
TAP	70	96	1
TAP	70	144	5
STR	70	192	4
SI_	70	192	4	96	48	0
STR	70	288	3
SI_	70	288	3	96	48	1
TAP	70	288	4
TAP	71	0	3
STR	71	0	4
SI_	71	0	4	96	48	6
STR	71	96	3
SI_	71	96	3	96	48	7
TAP	71	96	4
TAP	71	192	3
STR	71	192	4
SXR	71	192	4	96	144	1
TAP	72	96	3
TAP	72	96	5
TAP	72	144	4
STR	72	192	3
SV_	72	192	3	96	48	1
TAP	72	240	7
TAP	72	288	6
STR	72	336	5
SCR	72	336	5	96	48	0
TAP	73	0	2
STR	73	48	1
SUL	73	48	1	96	48	5
TAP	73	96	1
TAP	73	144	5
STR	73	192	4
SV_	73	192	4	96	48	6
TAP	73	240	0
TAP	73	288	1
STR	73	336	2
SCL	73	336	2	96	48	7
TAP	74	0	5
STR	74	48	6
SUR	74	48	6	96	48	2
TAP	74	96	6
TAP	74	144	2
STR	74	192	3
SI_	74	192	3	96	48	6
SI_	74	192	3	96	48	7
STR	75	0	4
SI_	75	0	4	96	48	0
SI_	75	0	4	96	48	1
STR	75	192	3
SF_	75	192	3	96	96	7
BRK	76	96	3
BRK	76	96	6
TAP	76	192	3
STR	76	192	4
SI_	76	192	4	96	48	2
STR	76	288	4
SI_	76	288	4	96	48	1
TAP	76	288	5
STR	77	0	4
SI_	77	0	4	96	48	0
TAP	77	0	6
TAP	77	96	4
TAP	77	96	7
STR	77	192	3
SI_	77	192	3	96	48	5
TAP	77	192	4
TAP	77	288	2
STR	77	288	3
SI_	77	288	3	96	48	6
TAP	78	0	1
STR	78	0	3
SI_	78	0	3	96	48	7
TAP	78	96	0
TAP	78	96	3
STR	78	192	5
SCR	78	192	5	96	96	1
STR	78	288	1
SCR	78	288	1	96	96	5
STR	79	0	5
SCR	79	0	5	96	96	1
STR	79	96	1
SCR	79	96	1	96	96	5
STR	79	192	5
SCR	79	192	5	96	96	1
STR	79	288	1
SXR	79	288	1	96	96	6
SLR	79	288	1	96	96	5
STR	80	192	3
SI_	80	192	3	96	48	5
TAP	80	192	4
TAP	80	288	2
STR	80	288	3
SI_	80	288	3	96	48	6
TAP	81	0	1
STR	81	0	3
SI_	81	0	3	96	48	7
TAP	81	96	0
TAP	81	96	3
TAP	81	192	3
STR	81	192	4
SI_	81	192	4	96	48	2
STR	81	288	4
SI_	81	288	4	96	48	1
TAP	81	288	5
STR	82	0	4
SI_	82	0	4	96	48	0
TAP	82	0	6
TAP	82	96	4
TAP	82	96	7
STR	82	192	3
SF_	82	192	3	96	48	7
STR	83	0	4
SF_	83	0	4	96	48	0
BST	83	192	0
SI_	83	192	0	96	48	4
BST	83	288	6
SI_	83	288	6	96	48	2
BST	84	0	4
SI_	84	0	4	96	48	0
BST	84	96	2
SI_	84	96	2	96	48	6
HLD	84	192	0	192
TAP	85	0	7
TAP	85	12	6
TAP	85	24	5
TAP	85	36	4
TAP	85	48	3
TAP	85	60	2
TAP	85	72	1
TAP	85	84	0
TAP	85	96	7
TAP	85	108	6
TAP	85	120	5
TAP	85	132	4
TAP	85	144	3
TAP	85	156	2
TAP	85	168	1
TAP	85	180	0
BRK	85	192	3
BRK	85	192	7

T_REC_TAP	292
T_REC_BRK	6
T_REC_XTP	0
T_REC_HLD	47
T_REC_XHO	0
T_REC_STR	167
T_REC_BST	4
T_REC_XST	0
T_REC_TTP	0
T_REC_THO	0
T_REC_SLD	182
T_REC_ALL	698
T_NUM_TAP	459
T_NUM_BRK	10
T_NUM_HLD	47
T_NUM_SLD	182
T_NUM_ALL	698
T_JUDGE_TAP	469
T_JUDGE_HLD	96
T_JUDGE_SLD	182
T_JUDGE_ALL	747
TTM_EACHPAIRS	53
TTM_SCR_TAP	229500
TTM_SCR_BRK	26000
TTM_SCR_HLD	47000
TTM_SCR_SLD	273000
TTM_SCR_ALL	575500
TTM_SCR_S	557300
TTM_SCR_SS	574500
TTM_RAT_ACV	10017

