VERSION	0.00.00	1.03.00
FES_MODE	0
BPM_DEF	150.000	150.000	150.000	150.000
MET_DEF	4	4
RESOLUTION	384
CLK_DEF	384
COMPATIBLE_CODE	MA2

BPM	0	0	150.000
MET	0	0	4	4
MET	23	0	4	2
MET	23	192	4	4

TAP	1	0	3
TAP	1	96	4
TAP	1	192	3
TAP	1	288	4
TAP	2	0	3
TAP	2	0	4
TAP	2	96	2
TAP	2	96	5
TAP	2	192	3
TAP	2	240	4
TAP	2	288	3
HLD	3	0	1	96
TAP	3	96	2
HLD	3	144	2	96
TAP	3	240	3
TAP	3	288	3
HLD	4	0	6	96
TAP	4	96	5
HLD	4	144	5	96
TAP	4	240	4
TAP	4	288	4
TAP	5	0	2
TAP	5	96	1
TAP	5	96	3
TAP	5	192	5
TAP	5	288	4
TAP	5	288	6
TAP	6	0	1
TAP	6	0	3
TAP	6	96	4
TAP	6	96	6
TAP	6	192	0
TAP	6	192	2
TAP	6	288	5
TAP	6	288	7
HLD	7	0	6	96
TAP	7	96	5
HLD	7	144	5	96
TAP	7	240	4
TAP	7	288	4
HLD	8	0	1	96
TAP	8	96	2
HLD	8	144	2	96
TAP	8	240	3
TAP	8	288	3
TAP	9	0	5
TAP	9	96	4
TAP	9	96	6
TAP	9	192	2
TAP	9	288	1
TAP	9	288	3
TAP	10	0	4
TAP	10	0	6
TAP	10	96	1
TAP	10	96	3
TAP	10	192	5
TAP	10	192	7
TAP	10	288	0
TAP	10	288	2
HLD	11	0	5	96
TAP	11	96	6
HLD	11	144	6	96
TAP	11	240	7
TAP	11	288	7
HLD	12	0	2	96
TAP	12	96	1
HLD	12	144	1	96
TAP	12	240	0
TAP	12	288	0
TAP	13	0	6
TAP	13	96	5
TAP	13	96	7
TAP	13	192	1
TAP	13	288	0
TAP	13	288	2
TAP	14	0	5
TAP	14	0	6
TAP	14	96	3
TAP	14	96	7
TAP	14	192	1
TAP	14	192	2
TAP	14	288	0
TAP	14	288	4
HLD	15	0	2	96
TAP	15	96	1
HLD	15	144	1	96
TAP	15	240	0
TAP	15	288	0
HLD	16	0	5	96
TAP	16	96	6
HLD	16	144	6	96
TAP	16	240	7
TAP	16	288	7
TAP	17	0	1
TAP	17	96	0
TAP	17	96	2
TAP	17	192	6
TAP	17	288	5
TAP	17	288	7
TAP	18	0	1
TAP	18	0	2
TAP	18	96	0
TAP	18	96	4
TAP	18	192	5
TAP	18	192	6
TAP	18	288	3
TAP	18	288	7
TAP	19	0	2
TAP	19	48	2
TAP	19	96	3
TAP	19	144	3
TAP	19	192	2
TAP	19	240	1
TAP	19	240	4
HLD	19	336	6	96
HLD	20	48	5	96
HLD	20	144	4	96
STR	20	240	3
SI_	20	240	3	96	48	0
BRK	20	336	5
TAP	21	0	5
TAP	21	48	5
TAP	21	96	4
TAP	21	144	4
TAP	21	192	5
TAP	21	240	3
TAP	21	240	6
HLD	21	336	1	96
HLD	22	48	2	96
HLD	22	144	3	96
STR	22	240	4
SCL	22	240	4	96	96	0
SCR	22	240	4	96	96	7
HLD	23	192	2	96
HLD	23	192	3	96
HLD	23	336	1	96
HLD	23	336	4	96
TAP	24	96	2
TAP	24	96	3
HLD	24	192	4	96
HLD	24	192	5	96
HLD	24	336	3	96
HLD	24	336	6	96
TAP	25	96	4
TAP	25	96	5
STR	25	192	1
SI_	25	192	1	96	48	4
TAP	25	288	7
STR	26	0	6
SI_	26	0	6	96	48	3
TAP	26	96	0
STR	26	192	1
SCR	26	192	1	96	96	6
TAP	27	96	0
TAP	27	96	7
HLD	27	192	4	96
HLD	27	192	5	96
HLD	27	336	3	96
HLD	27	336	6	96
TAP	28	96	4
TAP	28	96	5
HLD	28	192	2	96
HLD	28	192	3	96
HLD	28	336	1	96
HLD	28	336	4	96
TAP	29	96	2
TAP	29	96	3
STR	29	192	6
SI_	29	192	6	96	48	3
TAP	29	288	0
STR	30	0	1
SI_	30	0	1	96	48	4
TAP	30	96	7
STR	30	192	6
SCL	30	192	6	96	96	1
TAP	31	96	0
TAP	31	96	7
HLD	31	192	4	96
HLD	31	192	5	96
HLD	31	336	3	96
HLD	31	336	6	96
TAP	32	96	0
TAP	32	96	1
HLD	32	192	2	96
HLD	32	192	3	96
HLD	32	336	1	96
HLD	32	336	4	96
TAP	33	96	6
TAP	33	96	7
STR	33	192	1
SCR	33	192	1	96	48	4
TAP	33	288	7
STR	34	0	5
SCR	34	0	5	96	48	0
TAP	34	96	3
STR	34	192	1
SCR	34	192	1	96	96	7
TAP	35	96	0
TAP	35	96	4
HLD	35	192	2	96
HLD	35	192	3	96
HLD	35	336	1	96
HLD	35	336	4	96
TAP	36	96	6
TAP	36	96	7
HLD	36	192	4	96
HLD	36	192	5	96
HLD	36	336	3	96
HLD	36	336	6	96
TAP	37	96	0
TAP	37	96	1
STR	37	192	6
SCL	37	192	6	96	48	3
TAP	37	288	0
STR	38	0	2
SCL	38	0	2	96	48	7
TAP	38	96	4
STR	38	192	6
SCL	38	192	6	96	96	0
TAP	39	96	3
TAP	39	96	7
TAP	39	192	4
TAP	39	288	1
TAP	39	288	7
TAP	40	0	3
TAP	40	96	0
TAP	40	96	6
HLD	40	192	1	96
HLD	40	288	2	96
TAP	41	0	3
TAP	41	96	0
TAP	41	96	7
TAP	41	192	5
TAP	41	288	0
TAP	41	288	3
TAP	42	0	2
TAP	42	96	4
TAP	42	96	7
HLD	42	192	6	96
HLD	42	288	5	96
TAP	43	0	4
BRK	43	96	0
BRK	43	96	7
HLD	43	192	1	96
TAP	43	288	0
TAP	44	0	5
TAP	44	48	4
TAP	44	96	5
HLD	44	192	6	96
TAP	44	288	7
TAP	45	0	2
TAP	45	48	3
TAP	45	96	2
HLD	45	192	5	96
TAP	45	288	7
TAP	46	0	2
TAP	46	48	3
TAP	46	96	1
HLD	46	192	2	96
TAP	46	288	0
TAP	47	0	5
TAP	47	48	4
TAP	47	96	6
HLD	47	192	2	96
TAP	47	192	3
TAP	47	288	7
TAP	48	0	5
TAP	48	48	4
TAP	48	96	5
TAP	48	192	4
HLD	48	192	5	96
TAP	48	288	0
TAP	49	0	2
TAP	49	48	3
TAP	49	96	2
TAP	49	192	2
HLD	49	192	3	96
TAP	49	288	0
HLD	50	0	4	96
TAP	50	0	5
TAP	50	96	7
TAP	50	192	2
HLD	50	192	3	96
TAP	50	288	0
TAP	51	0	5
TAP	51	48	4
TAP	51	96	3
TAP	51	96	6
STR	51	192	1
SI_	51	192	1	96	48	4
TAP	51	288	7
TAP	52	0	5
TAP	52	48	4
TAP	52	96	5
STR	52	192	6
SI_	52	192	6	96	48	3
TAP	52	288	0
TAP	53	0	2
TAP	53	48	3
TAP	53	96	2
TAP	53	192	0
STR	53	192	1
SCR	53	192	1	96	48	4
TAP	53	288	0
TAP	54	0	5
TAP	54	48	4
TAP	54	96	6
STR	54	192	6
SCL	54	192	6	96	48	3
TAP	54	192	7
TAP	54	288	7
TAP	55	0	2
TAP	55	48	3
TAP	55	96	1
STR	55	192	4
SI_	55	192	4	96	48	0
TAP	55	192	5
TAP	55	288	7
TAP	56	0	6
TAP	56	48	4
TAP	56	96	5
TAP	56	192	2
STR	56	192	3
SI_	56	192	3	96	48	7
TAP	56	288	0
TAP	57	0	1
TAP	57	48	3
TAP	57	96	2
HLD	57	192	4	96
TAP	57	192	5
TAP	57	288	0
TAP	58	0	2
HLD	58	0	3	96
TAP	58	96	7
HLD	58	192	4	96
TAP	58	192	5
TAP	58	288	0
TAP	59	0	2
TAP	59	48	3
TAP	59	96	1
TAP	59	96	4
BST	59	192	3
SCL	59	192	3	96	192	4
HLD	60	192	5	96
TAP	60	192	7
TAP	60	288	4
TAP	60	336	3
TAP	60	336	6
TAP	61	48	1
TAP	61	96	0
TAP	61	192	0
HLD	61	192	2	96
TAP	61	288	3
TAP	61	336	1
TAP	61	336	4
TAP	62	48	6
TAP	62	96	7
STR	62	192	1
SI_	62	192	1	96	48	4
STR	62	288	6
SI_	62	288	6	96	48	3
STR	63	0	1
SI_	63	0	1	96	48	5
STR	63	96	6
SCL	63	96	6	96	48	3
STR	63	192	0
SSL	63	192	0	96	96	4
TAP	64	96	2
TAP	64	96	6
TAP	64	192	0
HLD	64	192	2	96
TAP	64	288	3
TAP	64	336	1
TAP	64	336	4
TAP	65	48	6
TAP	65	96	7
HLD	65	192	5	96
TAP	65	192	7
TAP	65	288	4
TAP	65	336	3
TAP	65	336	6
TAP	66	48	1
TAP	66	96	0
STR	66	192	6
SI_	66	192	6	96	48	3
STR	66	288	1
SI_	66	288	1	96	48	4
STR	67	0	6
SI_	67	0	6	96	48	2
STR	67	96	1
SCR	67	96	1	96	48	4
STR	67	192	7
SSR	67	192	7	96	96	3
TAP	68	96	1
TAP	68	96	5
TAP	68	192	4
HLD	68	192	6	96
TAP	68	288	7
TAP	68	336	1
TAP	68	336	4
TAP	69	48	2
TAP	69	96	3
HLD	69	192	1	96
TAP	69	192	3
TAP	69	288	0
TAP	69	336	3
TAP	69	336	6
TAP	70	48	5
TAP	70	96	4
STR	70	192	1
SI_	70	192	1	96	48	4
STR	70	288	6
SI_	70	288	6	96	48	2
STR	71	0	0
SI_	71	0	0	96	48	3
STR	71	96	5
SI_	71	96	5	96	48	0
STR	71	192	2
SSL	71	192	2	96	96	6
TAP	72	96	0
TAP	72	96	4
HLD	72	192	1	96
TAP	72	192	3
TAP	72	288	0
TAP	72	336	3
TAP	72	336	6
TAP	73	48	5
TAP	73	96	4
TAP	73	192	4
HLD	73	192	6	96
TAP	73	288	7
TAP	73	336	1
TAP	73	336	4
TAP	74	48	2
TAP	74	96	3
STR	74	192	6
SI_	74	192	6	96	48	3
STR	74	288	1
SI_	74	288	1	96	48	5
STR	75	0	7
SI_	75	0	7	96	48	4
STR	75	96	2
SI_	75	96	2	96	48	7
STR	75	192	5
SSR	75	192	5	96	96	1
TAP	76	96	3
TAP	76	96	7
TAP	76	192	4
TAP	76	192	6
TAP	76	240	5
TAP	76	288	5
TAP	76	336	1
TAP	76	336	3
TAP	77	0	2
TAP	77	48	2
TAP	77	96	5
TAP	77	96	7
TAP	77	192	1
TAP	77	192	3
TAP	77	240	2
TAP	77	288	2
TAP	77	336	4
TAP	77	336	6
TAP	78	0	5
TAP	78	48	5
TAP	78	96	0
TAP	78	96	2
STR	78	192	2
SCL	78	192	2	96	48	0
STR	78	288	3
SXL	78	288	3	96	48	5
STR	79	0	2
SCL	79	0	2	96	48	7
STR	79	96	3
SCR	79	96	3	96	48	6
STR	79	192	1
SF_	79	192	1	96	96	5
TAP	80	96	0
TAP	80	96	2
TAP	80	192	3
TAP	80	192	6
TAP	80	240	5
TAP	80	288	4
TAP	80	336	2
TAP	80	336	7
TAP	81	0	5
TAP	81	48	4
TAP	81	96	0
TAP	81	96	1
TAP	81	192	1
TAP	81	192	4
TAP	81	240	2
TAP	81	288	3
TAP	81	336	0
TAP	81	336	5
TAP	82	0	2
TAP	82	48	3
TAP	82	96	6
TAP	82	96	7
STR	82	192	5
SCR	82	192	5	96	48	7
STR	82	288	4
SXR	82	288	4	96	48	2
STR	83	0	5
SCR	83	0	5	96	48	0
STR	83	96	4
SCL	83	96	4	96	48	1
STR	83	192	6
SF_	83	192	6	96	96	2
TAP	84	96	5
TAP	84	96	7
BST	84	192	3
SXR	84	192	3	96	192	0
BST	84	192	4
SXL	84	192	4	96	192	7
BRK	85	192	1
BRK	85	192	6

T_REC_TAP	327
T_REC_BRK	5
T_REC_XTP	0
T_REC_HLD	78
T_REC_XHO	0
T_REC_STR	50
T_REC_BST	3
T_REC_XST	0
T_REC_TTP	0
T_REC_THO	0
T_REC_SLD	54
T_REC_ALL	517
T_NUM_TAP	377
T_NUM_BRK	8
T_NUM_HLD	78
T_NUM_SLD	54
T_NUM_ALL	517
T_JUDGE_TAP	385
T_JUDGE_HLD	156
T_JUDGE_SLD	54
T_JUDGE_ALL	595
TTM_EACHPAIRS	112
TTM_SCR_TAP	188500
TTM_SCR_BRK	20800
TTM_SCR_HLD	78000
TTM_SCR_SLD	81000
TTM_SCR_ALL	368300
TTM_SCR_S	356500
TTM_SCR_SS	367500
TTM_RAT_ACV	10021

