VERSION	0.00.00	1.03.00
FES_MODE	0
BPM_DEF	150.000	150.000	150.000	150.000
MET_DEF	4	4
RESOLUTION	384
CLK_DEF	384
COMPATIBLE_CODE	MA2

BPM	0	0	150.000
MET	0	0	4	4

TAP	1	0	0
TAP	1	96	7
TAP	1	192	1
TAP	1	288	6
TAP	2	0	2
STR	2	96	5
SI_	2	96	5	96	96	2
TAP	3	0	1
TAP	3	96	1
TAP	3	192	0
TAP	3	192	2
TAP	3	288	0
TAP	3	288	2
TAP	4	0	2
TAP	4	96	2
TAP	4	192	1
TAP	4	192	3
TAP	4	288	1
TAP	4	288	3
HLD	5	0	2	192
HLD	5	192	3	192
HLD	6	0	4	192
TAP	6	192	5
TAP	7	0	6
TAP	7	96	6
TAP	7	192	5
TAP	7	192	7
TAP	7	288	5
TAP	7	288	7
TAP	8	0	5
TAP	8	96	5
TAP	8	192	4
TAP	8	192	6
TAP	8	288	4
TAP	8	288	6
HLD	9	0	6	192
HLD	9	192	7	192
HLD	10	0	0	192
TAP	10	192	1
TAP	11	0	2
TAP	11	96	3
TAP	11	192	1
TAP	11	192	4
TAP	11	288	1
TAP	11	288	4
TAP	12	0	1
TAP	12	96	0
TAP	12	192	2
TAP	12	192	7
TAP	12	288	2
TAP	12	288	7
HLD	13	0	1	192
HLD	13	192	0	192
HLD	14	0	7	192
TAP	14	192	6
TAP	15	0	5
TAP	15	96	4
TAP	15	192	3
TAP	15	192	6
TAP	15	288	3
TAP	15	288	6
TAP	16	0	6
TAP	16	96	7
TAP	16	192	0
TAP	16	192	5
TAP	16	288	0
TAP	16	288	5
HLD	17	0	6	192
HLD	17	192	7	192
HLD	18	0	5	192
TAP	18	192	0
STR	19	0	6
SXL	19	0	6	96	480	2
STR	21	0	2
SXL	21	0	2	96	480	6
HLD	23	0	4	96
HLD	23	0	6	96
HLD	23	192	5	288
TAP	24	0	4
TAP	24	96	4
HLD	24	192	2	288
TAP	25	0	3
TAP	25	96	3
TAP	25	192	2
TAP	25	192	3
TAP	25	288	3
TAP	25	288	4
TAP	26	0	4
TAP	26	0	5
TAP	26	96	3
TAP	26	96	4
TAP	26	192	2
TAP	26	192	5
TAP	27	0	3
TAP	27	96	3
HLD	27	192	2	288
TAP	28	0	3
TAP	28	96	3
HLD	28	192	5	288
TAP	29	0	4
TAP	29	96	4
TAP	29	192	4
TAP	29	192	5
TAP	29	288	3
TAP	29	288	4
TAP	30	0	2
TAP	30	0	3
TAP	30	96	3
TAP	30	96	4
BRK	30	192	2
BRK	30	192	5
TAP	31	0	4
TAP	31	96	4
HLD	31	192	6	288
TAP	32	0	7
TAP	32	96	7
HLD	32	192	1	288
TAP	33	0	0
TAP	33	96	0
TAP	33	192	0
TAP	33	192	1
TAP	33	288	0
TAP	33	288	7
TAP	34	0	6
TAP	34	0	7
TAP	34	96	0
TAP	34	96	7
TAP	34	192	1
TAP	34	192	6
TAP	35	0	0
TAP	35	96	0
HLD	35	192	1	288
TAP	36	0	0
TAP	36	96	0
HLD	36	192	6	288
TAP	37	0	7
TAP	37	96	7
TAP	37	192	6
TAP	37	192	7
TAP	37	288	0
TAP	37	288	7
TAP	38	0	0
TAP	38	0	1
TAP	38	96	0
TAP	38	96	7
TAP	38	192	1
TAP	38	192	6
TAP	39	0	4
TAP	39	0	5
TAP	39	96	4
TAP	39	96	5
STR	39	192	4
SI_	39	192	4	96	192	1
STR	40	192	3
SI_	40	192	3	96	192	6
STR	41	192	5
SI_	41	192	5	96	192	1
STR	42	192	2
SCL	42	192	2	96	192	7
TAP	43	192	6
TAP	43	288	7
TAP	44	0	6
TAP	44	0	7
TAP	44	192	1
TAP	44	288	0
TAP	45	0	0
TAP	45	0	1
TAP	45	192	6
TAP	45	288	1
TAP	46	0	7
TAP	46	96	0
TAP	46	192	0
TAP	46	192	7
TAP	46	288	0
TAP	46	288	7
TAP	47	0	1
TAP	47	0	6
TAP	47	192	5
TAP	47	288	4
TAP	48	0	4
TAP	48	0	5
TAP	48	192	2
TAP	48	288	3
TAP	49	0	2
TAP	49	0	3
TAP	49	192	5
TAP	49	288	2
TAP	50	0	4
TAP	50	96	3
TAP	50	192	3
TAP	50	192	4
TAP	50	288	3
TAP	50	288	4
TAP	51	0	2
TAP	51	0	5
TAP	51	192	3
TAP	51	288	2
TAP	52	0	1
TAP	52	96	0
TAP	52	96	7
TAP	52	192	4
TAP	52	288	5
TAP	53	0	6
TAP	53	96	0
TAP	53	96	7
TAP	53	192	1
TAP	53	288	2
TAP	54	0	3
TAP	54	96	4
TAP	54	96	5
TAP	54	192	0
TAP	54	288	7
TAP	55	0	6
TAP	55	96	4
TAP	55	96	5
TAP	55	192	4
TAP	55	288	5
TAP	56	0	6
TAP	56	96	0
TAP	56	96	7
TAP	56	192	3
TAP	56	288	2
TAP	57	0	1
TAP	57	96	0
TAP	57	96	7
TAP	57	192	6
TAP	57	288	5
TAP	58	0	4
TAP	58	96	2
TAP	58	96	3
TAP	58	192	7
TAP	58	288	0
TAP	59	0	1
STR	59	96	2
SCL	59	96	2	96	288	5
TAP	59	96	3
HLD	60	192	5	288
TAP	61	0	4
TAP	61	96	4
HLD	61	192	1	288
TAP	62	0	0
TAP	62	96	0
TAP	62	192	7
TAP	62	288	0
TAP	63	0	6
TAP	63	96	1
TAP	63	192	2
TAP	63	192	5
TAP	64	0	3
TAP	64	96	3
HLD	64	192	2	288
TAP	65	0	3
TAP	65	96	3
HLD	65	192	6	288
TAP	66	0	7
TAP	66	96	7
TAP	66	192	0
TAP	66	288	7
TAP	67	0	1
TAP	67	96	6
BRK	67	192	2
BRK	67	192	5
TAP	68	0	4
TAP	68	96	4
HLD	68	192	6	288
TAP	69	0	5
TAP	69	96	5
HLD	69	192	1	288
TAP	70	0	2
TAP	70	96	2
TAP	70	192	0
TAP	70	192	1
TAP	70	288	2
TAP	70	288	7
TAP	71	0	3
TAP	71	0	6
TAP	71	96	4
TAP	71	96	5
TAP	71	192	3
TAP	71	192	7
TAP	72	0	0
TAP	72	96	0
HLD	72	192	1	288
TAP	73	0	2
TAP	73	96	2
HLD	73	192	6	288
TAP	74	0	5
TAP	74	96	5
TAP	74	192	6
TAP	74	192	7
TAP	74	288	0
TAP	74	288	5
TAP	75	0	1
TAP	75	0	4
TAP	75	96	2
TAP	75	96	3
TAP	75	192	0
TAP	75	192	4
TAP	76	0	0
TAP	76	0	7
TAP	76	96	0
TAP	76	96	7
TAP	76	192	1
TAP	76	288	0
TAP	77	0	1
TAP	77	96	2
TAP	77	96	7
TAP	77	192	2
TAP	77	288	3
TAP	78	0	2
TAP	78	96	1
TAP	78	96	4
TAP	78	192	6
TAP	78	288	7
TAP	79	0	6
TAP	79	96	0
TAP	79	96	5
TAP	79	192	5
TAP	79	288	4
TAP	80	0	5
TAP	80	96	3
TAP	80	96	6
TAP	80	192	1
TAP	80	288	0
TAP	81	0	0
TAP	81	0	1
TAP	81	96	2
TAP	81	96	3
TAP	81	192	6
TAP	81	288	7
TAP	82	0	6
TAP	82	0	7
TAP	82	96	4
TAP	82	96	5
TAP	82	192	3
TAP	82	192	4
TAP	82	288	2
TAP	82	288	3
TAP	83	0	3
TAP	83	0	4
TAP	83	96	2
TAP	83	96	5
TAP	83	192	1
TAP	83	192	6
TAP	83	288	0
TAP	83	288	7
TAP	84	0	0
STR	84	96	7
SI_	84	96	7	96	192	3

T_REC_TAP	297
T_REC_BRK	4
T_REC_XTP	0
T_REC_HLD	30
T_REC_XHO	0
T_REC_STR	9
T_REC_BST	0
T_REC_XST	0
T_REC_TTP	0
T_REC_THO	0
T_REC_SLD	9
T_REC_ALL	349
T_NUM_TAP	306
T_NUM_BRK	4
T_NUM_HLD	30
T_NUM_SLD	9
T_NUM_ALL	349
T_JUDGE_TAP	310
T_JUDGE_HLD	148
T_JUDGE_SLD	9
T_JUDGE_ALL	467
TTM_EACHPAIRS	85
TTM_SCR_TAP	153000
TTM_SCR_BRK	10400
TTM_SCR_HLD	30000
TTM_SCR_SLD	13500
TTM_SCR_ALL	206900
TTM_SCR_S	200350
TTM_SCR_SS	206500
TTM_RAT_ACV	10019

