VERSION	0.00.00	1.03.00
FES_MODE	0
BPM_DEF	150.000	150.000	150.000	150.000
MET_DEF	4	4
RESOLUTION	384
CLK_DEF	384
COMPATIBLE_CODE	MA2

BPM	0	0	150.000
MET	0	0	4	4
MET	23	0	4	2
MET	23	192	4	4

HLD	3	0	0	192
HLD	4	0	0	192
TAP	5	0	0
TAP	5	192	1
TAP	6	0	2
TAP	6	192	3
HLD	7	0	4	192
HLD	8	0	4	192
TAP	9	0	4
TAP	9	192	5
TAP	10	0	6
TAP	10	192	7
HLD	11	0	7	192
HLD	12	0	7	192
TAP	13	0	7
TAP	13	192	6
TAP	14	0	5
TAP	14	192	4
HLD	15	0	3	192
HLD	16	0	3	192
TAP	17	0	3
TAP	17	192	2
TAP	18	0	1
TAP	18	192	0
STR	19	0	0
SI_	19	0	0	96	288	3
STR	21	0	7
SI_	21	0	7	96	288	4
BRK	23	0	3
BRK	23	0	4
TAP	23	192	3
TAP	23	288	3
TAP	24	0	3
TAP	24	192	4
TAP	24	288	4
TAP	25	0	4
TAP	25	192	5
TAP	25	288	5
TAP	26	0	4
TAP	26	96	4
TAP	26	192	2
TAP	26	192	3
TAP	27	192	4
TAP	27	288	4
TAP	28	0	4
TAP	28	192	3
TAP	28	288	3
TAP	29	0	3
TAP	29	192	2
TAP	29	288	2
TAP	30	0	3
TAP	30	96	3
TAP	30	192	4
TAP	30	192	5
TAP	31	192	7
TAP	31	288	7
TAP	32	0	7
TAP	32	192	0
TAP	32	288	0
TAP	33	0	0
TAP	33	192	1
TAP	33	288	1
TAP	34	0	0
TAP	34	96	0
TAP	34	192	6
TAP	34	192	7
TAP	35	192	0
TAP	35	288	0
TAP	36	0	0
TAP	36	192	7
TAP	36	288	7
TAP	37	0	7
TAP	37	192	6
TAP	37	288	6
TAP	38	0	7
TAP	38	96	7
TAP	38	192	0
TAP	38	192	1
TAP	39	192	0
TAP	39	288	0
TAP	40	0	1
TAP	40	96	1
HLD	40	192	2	192
HLD	40	192	3	192
TAP	41	192	4
TAP	41	288	4
TAP	42	0	5
TAP	42	96	5
HLD	42	192	6	192
HLD	42	192	7	192
TAP	43	192	7
TAP	44	0	7
TAP	44	192	6
TAP	45	0	6
TAP	45	192	5
TAP	45	288	5
TAP	46	0	5
HLD	46	192	4	192
TAP	47	192	3
TAP	48	0	3
TAP	48	192	2
TAP	49	0	2
TAP	49	192	1
TAP	49	288	1
TAP	50	0	1
HLD	50	192	0	192
TAP	51	192	0
TAP	52	0	0
TAP	52	0	7
TAP	52	192	1
TAP	53	0	0
TAP	53	0	1
TAP	53	192	2
TAP	53	288	3
TAP	54	0	2
TAP	54	192	5
TAP	54	288	4
TAP	55	0	5
TAP	55	192	3
TAP	55	192	4
TAP	56	0	2
TAP	56	0	5
HLD	56	192	1	192
HLD	56	192	6	192
TAP	57	192	0
TAP	57	288	0
TAP	58	0	7
TAP	58	96	7
HLD	58	192	0	192
HLD	58	192	7	192
BRK	59	192	1
BRK	59	192	6
TAP	60	192	0
TAP	60	288	0
TAP	61	0	1
TAP	61	0	7
TAP	61	192	7
TAP	61	288	7
TAP	62	0	0
TAP	62	0	6
TAP	62	192	0
TAP	62	288	0
TAP	63	0	1
TAP	63	96	1
HLD	63	192	2	192
HLD	63	192	3	192
TAP	64	192	4
TAP	64	288	4
TAP	65	0	3
TAP	65	0	5
TAP	65	192	3
TAP	65	288	3
TAP	66	0	2
TAP	66	0	4
TAP	66	192	4
TAP	66	288	4
TAP	67	0	5
TAP	67	96	5
HLD	67	192	6	192
HLD	67	192	7	192
TAP	68	192	7
TAP	68	288	7
TAP	69	0	0
TAP	69	0	6
TAP	69	192	0
TAP	69	288	0
TAP	70	0	1
TAP	70	0	7
TAP	70	192	7
TAP	70	288	7
TAP	71	0	6
TAP	71	96	6
HLD	71	192	4	192
HLD	71	192	5	192
TAP	72	192	3
TAP	72	288	3
TAP	73	0	2
TAP	73	0	4
TAP	73	192	4
TAP	73	288	4
TAP	74	0	3
TAP	74	0	5
TAP	74	192	3
TAP	74	288	3
TAP	75	0	2
TAP	75	96	2
HLD	75	192	0	192
HLD	75	192	1	192
TAP	76	192	2
TAP	76	288	2
TAP	77	0	1
TAP	77	0	3
TAP	77	192	5
TAP	77	288	5
TAP	78	0	4
TAP	78	0	6
TAP	78	192	3
TAP	78	288	2
TAP	79	0	1
TAP	79	96	0
HLD	79	192	7	192
TAP	80	192	5
TAP	80	288	5
TAP	81	0	4
TAP	81	0	6
TAP	81	192	2
TAP	81	288	2
TAP	82	0	1
TAP	82	0	3
TAP	82	192	4
TAP	82	288	5
TAP	83	0	6
TAP	83	96	7
HLD	83	192	0	384
HLD	83	192	7	384

T_REC_TAP	178
T_REC_BRK	4
T_REC_XTP	0
T_REC_HLD	29
T_REC_XHO	0
T_REC_STR	2
T_REC_BST	0
T_REC_XST	0
T_REC_TTP	0
T_REC_THO	0
T_REC_SLD	2
T_REC_ALL	215
T_NUM_TAP	180
T_NUM_BRK	4
T_NUM_HLD	29
T_NUM_SLD	2
T_NUM_ALL	215
T_JUDGE_TAP	184
T_JUDGE_HLD	124
T_JUDGE_SLD	2
T_JUDGE_ALL	310
TTM_EACHPAIRS	31
TTM_SCR_TAP	90000
TTM_SCR_BRK	10400
TTM_SCR_HLD	29000
TTM_SCR_SLD	3000
TTM_SCR_ALL	132400
TTM_SCR_S	128050
TTM_SCR_SS	132000
TTM_RAT_ACV	10030

