VERSION	0.00.00	1.03.00
FES_MODE	0
BPM_DEF	196.975	199.060	218.551	172.299
MET_DEF	4	4
RESOLUTION	384
CLK_DEF	384
COMPATIBLE_CODE	MA2

BPM	0	0	196.975
BPM	1	0	201.470
BPM	1	96	201.470
BPM	1	192	194.932
BPM	1	288	200.440
BPM	2	0	202.619
BPM	2	96	204.278
BPM	2	192	189.582
BPM	2	288	195.667
BPM	3	0	197.798
BPM	3	96	197.798
BPM	3	192	197.798
BPM	3	288	178.989
BPM	4	0	189.365
BPM	4	96	204.222
BPM	4	192	204.222
BPM	4	288	201.217
BPM	5	0	199.977
BPM	5	96	199.977
BPM	5	192	192.942
BPM	5	288	181.668
BPM	6	0	197.507
BPM	6	96	194.717
BPM	6	192	202.464
BPM	6	288	201.954
BPM	7	0	201.954
BPM	7	96	193.153
BPM	7	192	195.826
BPM	7	288	194.145
BPM	8	0	199.623
BPM	8	96	195.349
BPM	8	192	199.909
BPM	8	288	201.585
BPM	9	0	201.585
BPM	9	96	201.800
BPM	9	192	201.954
BPM	9	288	189.433
BPM	10	0	200.250
BPM	10	96	200.250
BPM	10	192	198.426
BPM	10	288	192.507
BPM	11	0	192.507
BPM	11	96	199.683
BPM	11	192	197.007
BPM	11	288	195.566
BPM	12	0	197.787
BPM	12	96	218.551
BPM	12	192	186.707
BPM	12	288	204.191
BPM	13	0	182.326
BPM	13	96	203.821
BPM	13	192	203.821
BPM	13	288	200.197
BPM	14	0	187.753
BPM	14	96	201.378
BPM	14	192	200.000
BPM	14	288	200.000
BPM	15	0	194.602
BPM	15	96	194.430
BPM	15	192	194.788
BPM	15	288	203.555
BPM	16	0	194.459
BPM	16	96	193.847
BPM	16	192	198.277
BPM	16	288	206.211
BPM	17	0	206.211
BPM	17	96	200.486
BPM	17	192	193.762
BPM	17	288	194.103
BPM	18	0	197.500
BPM	18	96	197.500
BPM	18	192	201.432
BPM	18	288	194.431
BPM	19	0	197.198
BPM	19	96	197.906
BPM	19	192	202.278
BPM	19	288	195.320
BPM	20	0	207.472
BPM	20	96	207.472
BPM	20	192	194.331
BPM	20	288	203.086
BPM	21	0	203.086
BPM	21	96	193.904
BPM	21	192	193.160
BPM	21	288	211.166
BPM	22	0	198.553
BPM	22	96	198.553
BPM	22	192	194.573
BPM	22	288	190.428
BPM	23	0	199.172
BPM	23	96	201.309
BPM	23	192	205.699
BPM	23	288	205.699
BPM	24	0	200.675
BPM	24	96	200.675
BPM	24	192	205.347
BPM	24	288	205.347
BPM	25	0	201.685
BPM	25	96	201.685
BPM	25	192	197.176
BPM	25	288	197.176
BPM	26	0	209.426
BPM	26	96	209.426
BPM	26	192	201.341
BPM	26	288	212.463
BPM	27	0	212.463
BPM	27	96	204.296
BPM	27	192	204.296
BPM	27	288	197.362
BPM	28	0	197.362
BPM	28	96	208.744
BPM	28	192	201.662
BPM	28	288	202.542
BPM	29	0	207.758
BPM	29	96	198.992
BPM	29	192	198.992
BPM	29	288	202.116
BPM	30	0	202.116
BPM	30	96	205.558
BPM	30	192	205.558
BPM	30	288	206.001
BPM	31	0	203.058
BPM	31	96	199.344
BPM	31	192	199.344
BPM	31	288	200.836
BPM	32	0	201.678
BPM	32	96	201.678
BPM	32	192	212.795
BPM	32	288	212.795
BPM	33	0	204.512
BPM	33	96	200.410
BPM	33	192	200.410
BPM	33	288	216.547
BPM	34	0	202.837
BPM	34	96	202.837
BPM	34	192	197.906
BPM	34	288	209.303
BPM	35	0	209.303
BPM	35	96	206.381
BPM	35	192	206.381
BPM	35	288	207.758
BPM	36	0	201.723
BPM	36	96	210.435
BPM	36	192	207.465
BPM	36	288	207.465
BPM	37	0	204.134
BPM	37	96	206.913
BPM	37	192	208.036
BPM	37	288	208.215
BPM	38	0	208.215
BPM	38	96	205.396
BPM	38	192	205.396
BPM	38	288	196.664
BPM	39	0	196.664
BPM	39	96	193.012
BPM	39	192	193.012
BPM	39	288	197.169
BPM	40	0	195.870
BPM	40	96	195.870
BPM	40	192	199.924
BPM	40	288	204.712
BPM	41	0	204.712
BPM	41	96	199.562
BPM	41	192	193.252
BPM	41	288	200.151
BPM	42	0	204.783
BPM	42	96	204.783
BPM	42	192	199.060
BPM	42	288	199.060
BPM	43	0	196.198
BPM	43	96	196.198
BPM	43	192	196.087
BPM	43	288	199.420
BPM	44	0	199.420
BPM	44	96	202.094
BPM	44	192	202.094
BPM	44	288	201.001
BPM	45	0	198.254
BPM	45	96	198.254
BPM	45	192	201.234
BPM	45	288	204.482
BPM	46	0	204.482
BPM	46	96	194.189
BPM	46	192	196.444
BPM	46	288	196.444
BPM	47	0	190.903
BPM	47	96	190.903
BPM	47	192	198.307
BPM	47	288	196.073
BPM	48	0	201.110
BPM	48	96	200.698
BPM	48	192	200.896
BPM	48	288	197.798
BPM	49	0	197.798
BPM	49	96	197.798
BPM	49	192	197.798
BPM	49	288	197.798
BPM	50	0	183.287
BPM	50	96	195.184
BPM	50	192	195.184
BPM	50	288	193.083
BPM	51	0	198.396
BPM	51	96	198.396
BPM	51	192	199.690
BPM	51	288	199.690
BPM	52	0	195.754
BPM	52	96	195.754
BPM	52	192	195.104
BPM	52	288	201.785
BPM	53	0	195.739
BPM	53	96	202.721
BPM	53	192	202.721
BPM	53	288	190.196
BPM	54	0	190.196
BPM	54	96	197.264
BPM	54	192	197.264
BPM	54	288	200.934
BPM	55	0	200.934
BPM	55	96	193.691
BPM	55	192	195.508
BPM	55	288	203.061
BPM	56	0	203.061
BPM	56	96	199.672
BPM	56	192	204.736
BPM	56	288	195.638
BPM	57	0	198.231
BPM	57	96	198.231
BPM	57	192	204.279
BPM	57	288	204.279
BPM	58	0	192.477
BPM	58	96	193.847
BPM	58	192	196.758
BPM	58	288	200.031
BPM	59	0	196.364
BPM	59	96	194.932
BPM	59	192	195.589
BPM	59	288	195.589
BPM	60	0	202.477
BPM	60	96	201.125
BPM	60	192	201.140
BPM	60	288	200.607
BPM	61	0	194.245
BPM	61	96	195.601
BPM	61	192	195.601
BPM	61	288	194.404
BPM	62	0	201.156
BPM	62	96	201.202
BPM	62	192	199.789
BPM	62	288	172.299
BPM	63	0	196.189
BPM	63	96	196.145
BPM	63	192	196.145
BPM	63	288	201.924
BPM	64	0	201.924
BPM	64	96	201.401
BPM	64	192	198.753
BPM	64	288	204.025
BPM	65	0	193.620
BPM	65	96	193.620
BPM	65	192	196.459
BPM	65	288	196.459
BPM	66	0	202.233
BPM	66	96	195.248
BPM	66	192	201.739
BPM	66	288	180.037
BPM	67	0	194.160
BPM	67	96	197.798
BPM	67	192	197.798
BPM	67	288	195.550
BPM	68	0	195.550
BPM	68	96	183.493
BPM	68	192	197.798
BPM	68	288	187.213
BPM	69	0	183.457
BPM	69	96	197.798
BPM	69	192	201.250
BPM	69	288	201.250
BPM	70	0	201.986
BPM	70	96	201.646
BPM	70	192	194.652
BPM	70	288	194.652
BPM	71	0	198.918
BPM	71	96	199.623
BPM	71	192	192.954
BPM	71	288	192.954
BPM	72	0	201.823
BPM	72	96	201.823
BPM	72	192	200.718
BPM	72	288	193.548
BPM	73	0	195.783
BPM	73	96	199.060
BPM	73	192	199.060
BPM	73	288	200.143
BPM	74	0	200.143
BPM	74	96	201.818
BPM	74	192	197.581
BPM	74	288	208.216
BPM	75	0	210.000
BPM	75	96	205.001
BPM	75	192	196.422
BPM	75	288	202.170
BPM	76	0	205.477
BPM	76	96	205.477
BPM	76	192	194.098
BPM	76	288	200.554
BPM	77	0	200.554
BPM	77	96	194.443
BPM	77	192	207.757
BPM	77	288	207.757
BPM	78	0	196.439
BPM	78	96	203.148
BPM	78	192	198.188
BPM	78	288	199.217
BPM	79	0	201.324
BPM	79	96	203.994
BPM	79	192	199.940
BPM	79	288	203.398
BPM	80	0	202.930
BPM	80	96	202.930
BPM	80	192	200.775
BPM	80	288	205.260
BPM	81	0	198.775
BPM	81	96	198.775
BPM	81	192	199.911
BPM	81	288	201.003
BPM	82	0	201.003
BPM	82	96	204.181
BPM	82	192	204.181
BPM	82	288	200.627
BPM	83	0	199.503
BPM	83	96	197.096
BPM	83	192	197.096
BPM	83	288	199.230
BPM	84	0	201.493
BPM	84	96	200.653
BPM	84	192	201.462
BPM	84	288	201.324
BPM	85	0	203.375
BPM	85	96	203.375
BPM	85	192	199.690
BPM	85	288	199.690
BPM	86	0	199.690
BPM	86	96	199.690
BPM	86	192	193.252
BPM	86	288	199.060
BPM	87	0	199.060
BPM	87	96	199.060
BPM	87	192	199.060
BPM	87	288	206.575
BPM	88	0	206.575
BPM	88	96	199.060
BPM	88	192	199.060
BPM	88	288	199.060
BPM	89	0	206.211
BPM	89	96	199.316
BPM	89	192	199.316
BPM	89	288	205.148
BPM	90	0	205.148
BPM	90	96	191.280
BPM	90	192	181.769
BPM	90	288	197.862
BPM	91	0	205.644
BPM	91	96	205.644
BPM	91	192	193.660
BPM	91	288	193.904
BPM	92	0	193.904
BPM	92	96	206.372
BPM	92	192	206.372
BPM	92	288	194.402
BPM	93	0	194.760
BPM	93	96	198.865
BPM	93	192	198.865
BPM	93	288	195.393
BPM	94	0	201.723
BPM	94	96	197.579
BPM	94	192	197.579
BPM	94	288	200.444
BPM	95	0	198.002
BPM	95	96	198.002
BPM	95	192	195.026
BPM	95	288	195.026
BPM	96	0	202.355
BPM	96	96	194.731
BPM	96	192	200.835
BPM	96	288	202.000
BPM	97	0	197.346
BPM	97	96	197.346
BPM	97	192	198.428
BPM	97	288	198.428
BPM	98	0	197.798
BPM	98	96	197.798
BPM	98	192	197.798
BPM	98	288	204.032
BPM	99	0	195.363
BPM	99	96	194.616
BPM	99	192	201.019
BPM	99	288	201.232
BPM	100	0	193.083
BPM	100	96	194.874
BPM	100	192	190.965
BPM	100	288	190.965
BPM	101	0	199.802
BPM	101	96	199.060
BPM	101	192	199.060
BPM	101	288	199.060
BPM	102	0	202.830
BPM	102	96	193.676
BPM	102	192	200.242
BPM	102	288	200.927
BPM	103	0	195.248
BPM	103	96	201.831
BPM	103	192	199.060
BPM	103	288	205.496
BPM	104	0	205.496
BPM	104	96	204.805
BPM	104	192	204.805
BPM	104	288	200.638
BPM	105	0	201.877
BPM	105	96	194.145
BPM	105	192	193.655
BPM	105	288	193.655
BPM	106	0	193.294
BPM	106	96	204.907
BPM	106	192	204.907
BPM	106	288	199.991
BPM	107	0	193.813
BPM	107	96	193.813
BPM	107	192	200.908
BPM	107	288	199.060
BPM	108	0	212.437
BPM	108	96	199.060
BPM	108	192	199.690
BPM	108	288	212.463
BPM	109	0	200.137
BPM	109	96	200.769
BPM	109	192	200.769
BPM	109	288	208.128
BPM	110	0	188.825
BPM	110	96	200.228
BPM	110	192	196.845
BPM	110	288	196.845
BPM	111	0	201.083
BPM	111	96	200.682
BPM	111	192	200.682
BPM	111	288	204.678
BPM	112	0	204.678
BPM	112	96	205.587
BPM	112	192	205.587
BPM	112	288	198.424
BPM	113	0	198.424
BPM	113	96	218.454
BPM	113	192	197.423
BPM	113	288	197.423
BPM	114	0	202.332
BPM	114	96	208.249
BPM	114	192	208.249
BPM	114	288	202.308
BPM	115	0	199.864
BPM	115	96	186.024
BPM	115	192	203.743
BPM	115	288	194.359
BPM	116	0	199.503
BPM	116	96	196.160
BPM	116	192	199.112
BPM	116	288	199.112
BPM	117	0	203.242
BPM	117	96	180.123
BPM	117	192	191.434
BPM	117	288	193.287
BPM	118	0	201.656
MET	0	0	4	4

TAP	1	0	2
TAP	1	192	3
TAP	2	0	2
TAP	2	0	3
TAP	2	192	3
TAP	2	192	4
TAP	3	0	5
TAP	3	192	4
TAP	4	0	4
TAP	4	0	5
TAP	4	192	3
TAP	4	192	4
TAP	5	0	2
TAP	5	192	3
TAP	6	0	2
TAP	6	0	3
TAP	6	192	1
TAP	6	192	4
TAP	7	0	5
TAP	7	192	4
TAP	8	0	4
TAP	8	0	5
TAP	8	192	3
TAP	8	192	6
STR	9	0	4
SCR	9	0	4	96	192	7
STR	10	0	0
SCR	10	0	0	96	192	3
STR	11	0	4
SCR	11	0	4	96	192	7
TAP	12	0	0
TAP	12	96	0
BRK	12	192	0
BRK	12	192	7
TAP	13	0	1
TAP	13	96	0
TAP	13	192	1
TAP	14	0	6
TAP	14	96	7
TAP	14	192	6
TAP	15	0	2
TAP	15	96	3
TAP	15	192	2
TAP	16	0	5
TAP	16	96	4
TAP	16	192	5
TAP	17	0	1
TAP	17	96	0
TAP	17	192	0
TAP	17	192	1
TAP	18	0	6
TAP	18	96	7
TAP	18	192	6
TAP	18	192	7
TAP	19	0	2
TAP	19	96	3
TAP	19	192	2
TAP	19	192	3
TAP	20	0	5
TAP	20	96	4
TAP	20	192	4
TAP	20	192	5
STR	21	0	7
SCL	21	0	7	96	192	4
TAP	22	0	3
TAP	22	96	3
BRK	22	192	3
BRK	22	192	4
TAP	23	0	2
TAP	23	96	2
TAP	23	192	2
TAP	23	192	3
TAP	24	0	5
TAP	24	96	5
TAP	24	192	4
TAP	24	192	5
TAP	25	0	1
TAP	25	96	1
TAP	25	192	0
TAP	25	192	1
TAP	26	0	6
TAP	26	96	6
TAP	26	192	6
TAP	26	192	7
TAP	27	0	1
TAP	27	96	0
TAP	27	96	1
TAP	27	192	0
TAP	27	192	1
TAP	28	0	6
TAP	28	96	6
TAP	28	96	7
TAP	28	192	6
TAP	28	192	7
TAP	29	0	2
TAP	29	96	2
TAP	29	96	3
TAP	29	192	2
TAP	29	192	3
TAP	30	0	5
TAP	30	96	4
TAP	30	96	5
TAP	30	192	3
TAP	30	192	6
TAP	31	0	1
TAP	31	96	0
TAP	31	192	2
TAP	32	0	6
TAP	32	96	7
TAP	32	192	5
TAP	33	0	2
TAP	33	96	3
TAP	33	192	1
TAP	34	0	5
TAP	34	96	4
TAP	34	192	6
TAP	35	0	1
TAP	35	96	0
TAP	35	192	2
TAP	35	192	7
TAP	36	0	6
TAP	36	96	7
TAP	36	192	0
TAP	36	192	5
TAP	37	0	2
TAP	37	96	3
TAP	37	192	1
TAP	37	192	4
TAP	38	0	5
TAP	38	96	4
TAP	38	192	3
TAP	38	192	6
HLD	39	0	2	384
TAP	39	192	3
HLD	40	0	3	384
TAP	40	192	4
HLD	41	0	4	384
TAP	41	192	5
HLD	42	0	5	192
TAP	42	192	6
HLD	43	0	5	384
TAP	43	192	4
HLD	44	0	4	384
TAP	44	192	3
HLD	45	0	3	384
TAP	45	192	2
HLD	46	0	2	192
TAP	46	192	1
TAP	47	0	1
TAP	47	96	0
TAP	47	192	0
TAP	47	192	1
TAP	48	0	6
TAP	48	96	7
TAP	48	192	6
TAP	48	192	7
TAP	49	0	1
TAP	49	96	0
TAP	49	192	2
TAP	49	192	7
TAP	49	288	2
TAP	49	288	7
TAP	50	0	3
TAP	50	0	6
TAP	50	96	3
TAP	50	96	6
TAP	50	192	4
TAP	50	192	5
TAP	51	0	1
TAP	51	96	0
TAP	51	192	2
TAP	51	192	7
TAP	52	0	6
TAP	52	96	7
TAP	52	192	0
TAP	52	192	5
TAP	53	0	6
TAP	53	96	7
TAP	53	192	0
TAP	53	192	5
TAP	53	288	0
TAP	53	288	5
TAP	54	0	1
TAP	54	0	4
TAP	54	96	1
TAP	54	96	4
TAP	54	192	2
TAP	54	192	3
TAP	55	0	2
TAP	55	96	3
TAP	55	192	2
TAP	55	192	3
TAP	56	0	5
TAP	56	96	4
TAP	56	192	4
TAP	56	192	5
TAP	57	0	2
TAP	57	96	3
TAP	57	192	1
TAP	57	192	4
TAP	57	288	1
TAP	57	288	4
TAP	58	0	0
TAP	58	0	5
TAP	58	96	0
TAP	58	96	5
TAP	58	192	6
TAP	58	192	7
TAP	59	0	2
TAP	59	96	3
TAP	59	192	1
TAP	59	192	4
TAP	60	0	5
TAP	60	96	4
TAP	60	192	3
TAP	60	192	6
TAP	61	0	5
TAP	61	96	4
TAP	61	192	3
TAP	61	192	6
TAP	61	288	3
TAP	61	288	6
TAP	62	0	2
TAP	62	0	7
TAP	62	96	2
TAP	62	96	7
TAP	62	192	0
TAP	62	192	1
TAP	63	0	1
TAP	63	96	0
TAP	63	192	1
TAP	63	288	0
TAP	64	0	0
TAP	64	0	1
TAP	64	96	0
TAP	64	96	1
TAP	64	192	2
TAP	64	192	7
TAP	65	0	6
TAP	65	96	7
TAP	65	192	6
TAP	65	288	7
TAP	66	0	6
TAP	66	0	7
TAP	66	96	6
TAP	66	96	7
TAP	66	192	0
TAP	66	192	5
TAP	67	0	2
TAP	67	96	3
TAP	67	192	2
TAP	67	288	3
TAP	68	0	2
TAP	68	0	3
TAP	68	96	2
TAP	68	96	3
TAP	68	192	1
TAP	68	192	4
TAP	69	0	5
TAP	69	96	4
TAP	69	192	5
TAP	69	288	4
TAP	70	0	4
TAP	70	0	5
TAP	70	96	4
TAP	70	96	5
TAP	70	192	3
TAP	70	192	6
HLD	71	0	2	192
TAP	71	192	3
TAP	72	0	2
TAP	72	0	3
TAP	72	96	2
TAP	72	96	3
TAP	72	192	1
TAP	72	192	4
HLD	73	0	5	192
TAP	73	192	4
TAP	74	0	4
TAP	74	0	5
TAP	74	96	4
TAP	74	96	5
TAP	74	192	3
TAP	74	192	6
HLD	75	0	1	192
TAP	75	192	0
TAP	76	0	0
TAP	76	0	1
TAP	76	96	0
TAP	76	96	1
TAP	76	192	2
TAP	76	192	7
HLD	77	0	6	192
TAP	77	192	7
TAP	78	0	6
TAP	78	0	7
TAP	78	96	6
TAP	78	96	7
TAP	78	192	0
TAP	78	192	5
HLD	79	0	0	192
TAP	79	192	7
TAP	80	0	0
TAP	80	0	7
TAP	80	96	1
TAP	80	96	6
TAP	80	192	2
TAP	80	192	5
HLD	81	0	4	192
TAP	81	192	3
TAP	82	0	3
TAP	82	0	4
TAP	82	96	2
TAP	82	96	5
TAP	82	192	1
TAP	82	192	6
HLD	83	0	1	192
TAP	83	192	0
TAP	84	0	0
TAP	84	0	1
TAP	84	96	2
TAP	84	96	7
TAP	84	192	3
TAP	84	192	6
TAP	84	288	3
TAP	84	288	6
STR	85	0	6
SCL	85	0	6	96	480	1
TAP	87	0	6
TAP	87	96	7
TAP	87	192	6
TAP	87	192	7
TAP	87	288	6
TAP	87	288	7
TAP	88	0	1
TAP	88	96	0
TAP	88	192	0
TAP	88	192	1
TAP	88	288	0
TAP	88	288	1
TAP	89	0	7
TAP	89	96	0
TAP	89	192	1
TAP	89	192	6
TAP	89	288	0
TAP	89	288	7
STR	90	0	0
SUR	90	0	0	96	144	4
TAP	91	0	6
TAP	91	96	7
TAP	91	192	6
TAP	91	192	7
TAP	91	288	0
TAP	91	288	5
TAP	92	0	1
TAP	92	96	0
TAP	92	192	0
TAP	92	192	1
TAP	92	288	2
TAP	92	288	7
TAP	93	0	7
TAP	93	96	0
TAP	93	192	0
TAP	93	192	7
TAP	93	288	1
TAP	93	288	6
STR	94	0	1
SUR	94	0	1	96	144	5
TAP	95	0	5
TAP	95	96	4
TAP	95	192	4
TAP	95	192	5
TAP	95	288	3
TAP	95	288	6
TAP	96	0	2
TAP	96	96	3
TAP	96	192	2
TAP	96	192	3
TAP	96	288	1
TAP	96	288	4
TAP	97	0	4
TAP	97	96	3
TAP	97	192	3
TAP	97	192	4
TAP	97	288	2
TAP	97	288	5
STR	98	0	3
SUR	98	0	3	96	144	7
TAP	99	0	5
TAP	99	96	4
TAP	99	192	4
TAP	99	192	5
TAP	99	288	3
TAP	99	288	6
TAP	100	0	2
TAP	100	96	3
TAP	100	192	2
TAP	100	288	1
TAP	100	288	4
TAP	101	0	4
TAP	101	96	3
TAP	101	192	3
TAP	101	192	4
TAP	101	288	2
TAP	101	288	5
STR	102	0	2
SUR	102	0	2	96	144	6
TAP	103	0	1
TAP	103	96	0
TAP	103	192	1
TAP	103	288	0
TAP	104	0	0
TAP	104	0	1
TAP	104	96	2
TAP	104	96	7
STR	104	192	0
SCL	104	192	0	96	288	5
STR	104	192	1
SCR	104	192	1	96	288	4
TAP	106	0	4
TAP	106	0	5
TAP	106	96	3
TAP	106	96	6
TAP	106	192	2
TAP	106	192	7
TAP	106	288	0
TAP	106	288	1
TAP	107	0	6
TAP	107	96	7
TAP	107	192	6
TAP	107	288	7
TAP	108	0	6
TAP	108	0	7
TAP	108	96	0
TAP	108	96	5
STR	108	192	6
SCL	108	192	6	96	288	3
STR	108	192	7
SCR	108	192	7	96	288	2
TAP	110	0	2
TAP	110	0	3
TAP	110	96	1
TAP	110	96	4
TAP	110	192	0
TAP	110	192	5
TAP	110	288	6
TAP	110	288	7
TAP	111	0	5
TAP	111	96	4
TAP	111	192	5
TAP	111	288	4
TAP	112	0	4
TAP	112	0	5
TAP	112	96	3
TAP	112	96	6
STR	112	192	4
SCL	112	192	4	96	288	1
STR	112	192	5
SCR	112	192	5	96	288	0
TAP	114	0	0
TAP	114	0	1
TAP	114	96	2
TAP	114	96	7
TAP	114	192	3
TAP	114	192	6
TAP	114	288	4
TAP	114	288	5
TAP	115	0	2
TAP	115	96	3
TAP	115	192	5
TAP	115	288	4
TAP	116	0	3
TAP	116	96	3
TAP	116	96	4
TAP	116	192	4
TAP	116	288	3
TAP	116	288	4
STR	117	0	2
SI_	117	0	2	96	192	0
STR	117	0	5
SI_	117	0	5	96	192	7
BRK	118	0	1
BRK	118	0	6

T_REC_TAP	428
T_REC_BRK	6
T_REC_XTP	0
T_REC_HLD	15
T_REC_XHO	0
T_REC_STR	17
T_REC_BST	0
T_REC_XST	0
T_REC_TTP	0
T_REC_THO	0
T_REC_SLD	17
T_REC_ALL	483
T_NUM_TAP	445
T_NUM_BRK	6
T_NUM_HLD	15
T_NUM_SLD	17
T_NUM_ALL	483
T_JUDGE_TAP	451
T_JUDGE_HLD	84
T_JUDGE_SLD	17
T_JUDGE_ALL	552
TTM_EACHPAIRS	140
TTM_SCR_TAP	222500
TTM_SCR_BRK	15600
TTM_SCR_HLD	15000
TTM_SCR_SLD	25500
TTM_SCR_ALL	278600
TTM_SCR_S	269700
TTM_SCR_SS	278000
TTM_RAT_ACV	10021

