VERSION	0.00.00	1.03.00
FES_MODE	0
BPM_DEF	136.000	136.000	136.000	103.000
MET_DEF	4	4
RESOLUTION	384
CLK_DEF	384
COMPATIBLE_CODE	MA2

BPM	0	0	136.000
BPM	52	288	134.000
BPM	53	0	121.000
BPM	53	96	116.000
BPM	53	192	103.000
MET	0	0	4	4

TAP	1	0	3
TAP	1	0	4
TAP	1	64	3
TAP	1	64	4
TAP	1	160	3
TAP	1	160	4
TAP	1	192	3
TAP	1	192	4
TAP	1	256	0
TAP	1	272	7
TAP	1	288	0
TAP	1	352	7
STR	2	0	0
SI_	2	0	0	96	32	3
STR	2	96	0
SI_	2	96	0	96	32	5
TAP	2	192	0
TAP	2	256	0
TAP	2	272	7
TAP	2	288	0
TAP	2	352	7
HLD	3	0	2	64
TAP	3	64	4
HLD	3	96	6	64
TAP	3	160	2
HLD	3	192	0	64
TAP	3	256	7
TAP	3	272	0
TAP	3	288	7
TAP	3	352	0
STR	4	0	7
SI_	4	0	7	96	32	4
STR	4	96	7
SI_	4	96	7	96	32	2
TAP	4	192	7
TAP	4	256	7
TAP	4	272	0
TAP	4	288	7
TAP	4	352	0
HLD	5	0	5	64
TAP	5	64	3
HLD	5	96	1	64
TAP	5	160	5
HLD	5	192	7	96
TAP	5	288	0
TAP	5	352	0
STR	6	0	1
SCR	6	0	1	96	32	4
TAP	6	96	1
TAP	6	96	7
TAP	6	160	7
STR	6	192	6
SCL	6	192	6	96	32	3
TAP	6	288	0
TAP	6	288	6
TAP	6	352	0
STR	7	0	1
SI_	7	0	1	96	32	4
TAP	7	96	1
TAP	7	96	7
TAP	7	160	7
STR	7	192	6
SI_	7	192	6	96	32	3
TAP	7	288	0
TAP	7	288	6
TAP	7	352	0
TAP	8	0	2
TAP	8	0	3
TAP	8	64	2
TAP	8	64	3
TAP	8	160	2
TAP	8	160	3
STR	8	192	1
SXL	8	192	1	96	32	3
TAP	8	192	4
TAP	8	288	1
TAP	8	288	7
TAP	9	0	4
TAP	9	0	5
TAP	9	64	4
TAP	9	64	5
TAP	9	160	4
TAP	9	160	5
TAP	9	192	3
HLD	9	192	6	96
BRK	9	288	0
TAP	9	300	1
TAP	9	312	2
BRK	9	324	3
TAP	9	336	4
TAP	9	348	5
BRK	9	360	6
TAP	9	372	7
TAP	10	0	0
BRK	10	12	1
TAP	10	24	2
TAP	10	36	3
BRK	10	48	4
TAP	10	60	5
TAP	10	72	6
BRK	10	84	7
TAP	10	96	0
TAP	10	108	1
BRK	10	120	2
TAP	10	132	3
TAP	10	144	4
BRK	10	156	5
TAP	10	168	6
TAP	10	180	7
BRK	10	192	0
BRK	10	192	4
TAP	11	0	3
TAP	11	0	4
TAP	11	96	2
TAP	11	96	5
TAP	11	160	3
TAP	11	160	4
TAP	11	192	3
TAP	11	192	4
TAP	11	288	3
TAP	11	352	5
TAP	12	0	4
TAP	12	0	6
TAP	12	64	4
TAP	12	64	6
TAP	12	160	3
TAP	12	192	4
TAP	12	288	3
TAP	12	288	4
TAP	12	352	2
TAP	13	0	1
TAP	13	0	4
TAP	13	64	5
TAP	13	96	3
TAP	13	96	6
TAP	13	160	1
TAP	13	192	0
TAP	13	192	4
TAP	13	256	6
TAP	13	288	0
TAP	13	288	7
TAP	13	352	7
TAP	14	0	0
TAP	14	0	6
TAP	14	64	0
TAP	14	96	1
TAP	14	96	7
TAP	14	160	6
TAP	14	192	5
TAP	14	192	7
TAP	14	256	1
TAP	14	288	0
TAP	14	288	2
TAP	14	352	6
TAP	14	352	7
TAP	15	0	0
TAP	15	0	5
TAP	15	64	0
TAP	15	64	1
TAP	15	96	2
TAP	15	96	7
TAP	15	160	0
TAP	15	160	7
TAP	15	192	1
TAP	15	192	6
TAP	15	288	3
TAP	15	288	4
TAP	15	352	2
TAP	16	0	1
TAP	16	0	3
TAP	16	64	1
TAP	16	64	3
TAP	16	160	4
TAP	16	192	3
TAP	16	288	3
TAP	16	288	4
TAP	16	352	5
TAP	17	0	3
TAP	17	0	6
TAP	17	64	2
TAP	17	96	1
TAP	17	96	4
TAP	17	160	6
TAP	17	192	3
TAP	17	192	7
TAP	17	256	1
TAP	17	288	0
TAP	17	288	7
TAP	17	352	0
TAP	18	0	1
TAP	18	0	7
TAP	18	64	7
TAP	18	96	0
TAP	18	96	6
TAP	18	160	1
TAP	18	192	0
TAP	18	192	2
TAP	18	256	6
TAP	18	288	5
TAP	18	288	7
TAP	18	352	0
TAP	18	352	1
TAP	19	0	2
TAP	19	0	7
TAP	19	64	6
TAP	19	64	7
TAP	19	96	0
TAP	19	96	5
TAP	19	160	0
TAP	19	160	7
TAP	19	192	1
TAP	19	192	6
TAP	19	288	3
TAP	19	288	4
TAP	19	352	3
STR	20	0	5
SXL	20	0	5	96	96	2
TAP	20	64	5
TAP	20	160	1
TAP	20	192	1
TAP	20	288	3
TAP	20	288	4
STR	21	0	2
SXR	21	0	2	96	96	5
TAP	21	64	2
TAP	21	160	6
TAP	21	192	6
TAP	21	288	7
TAP	21	352	0
STR	22	0	7
SXR	22	0	7	96	96	2
TAP	22	64	7
TAP	22	160	1
TAP	22	192	1
TAP	22	288	3
TAP	22	288	4
STR	23	0	0
SXL	23	0	0	96	96	5
TAP	23	64	0
TAP	23	160	6
TAP	23	192	6
TAP	23	256	7
TAP	23	288	0
TAP	23	352	7
STR	24	0	1
SCR	24	0	1	96	32	4
TAP	24	64	1
STR	24	96	6
SCL	24	96	6	96	32	3
TAP	24	160	6
STR	24	192	0
SCR	24	192	0	96	32	3
TAP	24	256	0
STR	24	288	7
SCL	24	288	7	96	32	4
TAP	24	352	7
STR	25	0	2
SCL	25	0	2	96	32	7
TAP	25	64	2
STR	25	96	5
SCR	25	96	5	96	32	0
TAP	25	160	5
TAP	25	192	3
TAP	25	288	2
STR	25	288	3
SCR	25	288	3	96	48	7
TAP	26	0	1
TAP	26	0	3
STR	26	96	4
SCL	26	96	4	96	48	0
TAP	26	160	5
TAP	26	192	4
TAP	26	192	6
STR	26	288	7
SCL	26	288	7	96	32	4
STR	27	0	7
SCR	27	0	7	96	32	2
STR	27	96	7
SUL	27	96	7	96	32	3
TAP	27	160	7
TAP	27	192	0
TAP	27	256	0
TAP	27	288	7
TAP	27	352	0
TAP	28	0	1
TAP	28	0	3
TAP	28	64	2
TAP	28	96	4
TAP	28	160	3
TAP	28	192	4
TAP	28	192	6
TAP	28	256	5
TAP	28	272	4
STR	28	288	5
SI_	28	288	5	96	32	1
TAP	28	352	5
BST	29	0	4
SI_	29	0	4	96	32	2
TAP	29	64	4
BST	29	96	5
SI_	29	96	5	96	32	7
TAP	29	160	5
BST	29	192	4
SI_	29	192	4	96	32	0
TAP	29	256	4
BRK	29	288	5
TAP	29	352	5
TAP	30	0	3
TAP	30	0	5
TAP	30	64	3
TAP	30	64	5
TAP	30	96	4
TAP	30	160	2
TAP	30	160	3
TAP	30	192	1
TAP	30	192	4
TAP	30	256	1
TAP	30	272	0
TAP	30	288	1
TAP	30	352	2
TAP	31	0	1
TAP	31	0	3
TAP	31	64	1
TAP	31	64	3
TAP	31	96	2
TAP	31	160	4
TAP	31	160	5
TAP	31	192	3
TAP	31	192	6
TAP	31	288	0
TAP	31	288	7
TAP	31	352	1
TAP	31	352	6
TAP	32	0	2
TAP	32	0	4
TAP	32	64	2
TAP	32	64	4
TAP	32	96	3
TAP	32	160	4
TAP	32	160	5
TAP	32	192	3
TAP	32	192	6
TAP	32	256	6
TAP	32	272	7
TAP	32	288	6
TAP	32	352	5
TAP	33	0	4
TAP	33	0	6
TAP	33	64	4
TAP	33	64	6
TAP	33	96	5
TAP	33	160	2
TAP	33	160	3
TAP	33	192	1
TAP	33	192	4
TAP	33	256	1
TAP	33	256	6
TAP	33	288	0
TAP	33	288	7
TAP	33	352	1
TAP	33	352	6
STR	34	0	6
SUL	34	0	6	96	32	2
TAP	34	64	6
STR	34	96	1
SUR	34	96	1	96	32	5
TAP	34	160	1
STR	34	192	7
SUL	34	192	7	96	32	3
TAP	34	256	7
STR	34	288	0
SUR	34	288	0	96	32	4
TAP	34	352	0
STR	35	0	5
SUR	35	0	5	96	32	1
TAP	35	64	5
STR	35	96	2
SUL	35	96	2	96	32	6
TAP	35	160	2
TAP	35	192	4
STR	35	288	4
SCL	35	288	4	96	48	0
TAP	35	288	5
TAP	36	0	4
TAP	36	0	6
STR	36	96	3
SCR	36	96	3	96	48	7
TAP	36	160	2
TAP	36	192	1
TAP	36	192	3
STR	36	288	0
SCR	36	288	0	96	32	3
STR	37	0	0
SCL	37	0	0	96	32	5
STR	37	96	0
SUR	37	96	0	96	32	4
TAP	37	160	0
TAP	37	192	7
TAP	37	256	7
TAP	37	288	0
TAP	37	352	7
TAP	38	0	4
TAP	38	0	6
TAP	38	64	5
TAP	38	96	3
TAP	38	160	4
TAP	38	192	1
TAP	38	192	3
TAP	38	256	2
TAP	38	272	3
STR	38	288	2
SCR	38	288	2	96	32	5
TAP	38	352	2
BST	39	0	6
SUL	39	0	6	96	32	2
BST	39	96	0
SI_	39	96	0	96	32	4
BRK	39	160	0
BRK	39	192	7
STR	39	288	7
SXR	39	288	7	96	32	5
TAP	39	352	7
TAP	40	0	2
TAP	40	64	2
TAP	40	160	1
TAP	40	160	4
TAP	40	192	2
TAP	40	192	3
STR	40	288	3
SXR	40	288	3	96	32	1
TAP	40	352	3
STR	41	0	4
SCR	41	0	4	96	32	7
TAP	41	64	4
STR	41	96	3
SUR	41	96	3	96	64	4
TAP	41	160	3
TAP	41	192	5
TAP	41	256	6
STR	41	288	6
SI_	41	288	6	96	32	3
TAP	41	352	6
STR	42	0	7
SI_	42	0	7	96	32	2
TAP	42	64	7
STR	42	96	6
SCL	42	96	6	96	32	3
TAP	42	160	6
STR	42	192	7
SCR	42	192	7	96	32	2
TAP	42	256	7
STR	42	288	6
SI_	42	288	6	96	32	2
TAP	42	352	6
STR	43	0	7
SI_	43	0	7	96	32	3
TAP	43	64	7
STR	43	96	6
SXL	43	96	6	96	96	3
TAP	43	160	6
TAP	43	192	0
STR	43	288	0
SXL	43	288	0	96	32	2
TAP	43	352	0
TAP	44	0	5
TAP	44	64	5
TAP	44	160	3
TAP	44	160	6
TAP	44	192	4
TAP	44	192	5
STR	44	288	4
SXL	44	288	4	96	32	6
TAP	44	352	4
STR	45	0	3
SCL	45	0	3	96	32	0
TAP	45	64	3
STR	45	96	4
SUL	45	96	4	96	64	3
TAP	45	160	4
TAP	45	192	2
TAP	45	256	1
STR	45	288	1
SI_	45	288	1	96	32	4
TAP	45	352	1
STR	46	0	0
SI_	46	0	0	96	32	5
TAP	46	64	0
STR	46	96	1
SCR	46	96	1	96	32	4
TAP	46	160	1
STR	46	192	0
SCL	46	192	0	96	32	5
TAP	46	256	0
STR	46	288	1
SI_	46	288	1	96	32	5
TAP	46	352	1
STR	47	0	0
SI_	47	0	0	96	32	4
TAP	47	64	0
STR	47	96	1
SXR	47	96	1	96	96	4
TAP	47	160	1
TAP	47	192	7
STR	47	288	7
SXR	47	288	7	96	32	5
TAP	47	352	7
TAP	48	0	2
TAP	48	64	2
TAP	48	160	1
TAP	48	160	4
TAP	48	192	2
TAP	48	192	3
STR	48	288	0
SCR	48	288	0	96	32	3
TAP	48	352	0
STR	49	0	5
SCR	49	0	5	96	32	0
TAP	49	64	5
STR	49	96	2
SCR	49	96	2	96	32	5
TAP	49	160	2
TAP	49	192	7
TAP	49	256	6
STR	49	288	6
SUL	49	288	6	96	32	2
TAP	49	352	6
STR	50	0	7
SUR	50	0	7	96	32	3
TAP	50	64	7
STR	50	96	5
SUL	50	96	5	96	32	1
TAP	50	160	5
STR	50	192	0
SUR	50	192	0	96	32	4
TAP	50	256	0
STR	50	288	6
SUL	50	288	6	96	32	2
TAP	50	352	6
STR	51	0	7
SUR	51	0	7	96	32	3
TAP	51	64	7
STR	51	96	5
SXL	51	96	5	96	96	2
TAP	51	160	5
TAP	51	192	0
TAP	51	288	1
TAP	52	0	3
TAP	52	0	4
TAP	52	64	5
TAP	52	96	0
TAP	52	160	2
TAP	52	192	7
TAP	52	256	3
TAP	52	272	4
TAP	52	288	3
TAP	52	352	4
BRK	53	0	1
BRK	53	0	5
BRK	53	96	2
BRK	53	96	6
BRK	53	160	0
BRK	53	160	7
BRK	53	192	1
BRK	53	192	6

T_REC_TAP	386
T_REC_BRK	21
T_REC_XTP	0
T_REC_HLD	7
T_REC_XHO	0
T_REC_STR	70
T_REC_BST	5
T_REC_XST	0
T_REC_TTP	0
T_REC_THO	0
T_REC_SLD	75
T_REC_ALL	564
T_NUM_TAP	456
T_NUM_BRK	26
T_NUM_HLD	7
T_NUM_SLD	75
T_NUM_ALL	564
T_JUDGE_TAP	482
T_JUDGE_HLD	14
T_JUDGE_SLD	75
T_JUDGE_ALL	571
TTM_EACHPAIRS	102
TTM_SCR_TAP	228000
TTM_SCR_BRK	67600
TTM_SCR_HLD	7000
TTM_SCR_SLD	112500
TTM_SCR_ALL	415100
TTM_SCR_S	400150
TTM_SCR_SS	412500
TTM_RAT_ACV	10063

