VERSION	0.00.00	1.03.00
FES_MODE	0
BPM_DEF	136.000	136.000	136.000	103.000
MET_DEF	4	4
RESOLUTION	384
CLK_DEF	384
COMPATIBLE_CODE	MA2

BPM	0	0	136.000
BPM	52	288	134.000
BPM	53	0	121.000
BPM	53	96	116.000
BPM	53	192	103.000
MET	0	0	4	4

TAP	1	0	3
TAP	1	0	4
TAP	1	64	3
TAP	1	64	4
TAP	1	160	3
TAP	1	160	4
TAP	1	192	3
TAP	1	192	4
TAP	1	288	1
TAP	1	288	6
TAP	2	0	3
TAP	2	0	5
TAP	2	96	2
TAP	2	96	4
TAP	2	192	3
TAP	2	192	5
TAP	2	288	2
TAP	2	288	4
TAP	3	0	4
TAP	3	0	5
TAP	3	64	4
TAP	3	64	5
TAP	3	160	4
TAP	3	160	5
TAP	3	192	4
TAP	3	192	5
TAP	3	288	2
TAP	3	288	7
TAP	4	0	0
TAP	4	0	6
TAP	4	96	1
TAP	4	96	7
TAP	4	192	0
TAP	4	192	6
TAP	4	288	1
TAP	4	288	7
TAP	5	0	2
TAP	5	0	3
TAP	5	64	2
TAP	5	64	3
TAP	5	160	2
TAP	5	160	3
TAP	5	192	2
TAP	5	192	3
TAP	5	288	0
TAP	5	288	5
HLD	6	0	3	96
HLD	6	0	4	96
TAP	6	160	3
TAP	6	160	5
HLD	6	192	3	96
HLD	6	192	5	96
TAP	6	352	3
TAP	6	352	4
HLD	7	0	3	96
HLD	7	0	4	96
TAP	7	160	2
TAP	7	160	4
HLD	7	192	2	96
HLD	7	192	4	96
TAP	7	352	3
TAP	7	352	4
HLD	8	0	3	96
HLD	8	0	4	96
TAP	8	160	3
TAP	8	160	5
HLD	8	192	3	96
HLD	8	192	5	96
TAP	8	352	3
TAP	8	352	4
HLD	9	0	3	96
HLD	9	0	4	96
TAP	9	160	3
TAP	9	160	4
TAP	9	192	3
TAP	9	192	4
BRK	9	288	1
BRK	9	288	6
HLD	10	0	3	192
TAP	10	0	4
TAP	10	96	2
HLD	10	192	4	192
TAP	10	288	5
TAP	11	0	3
TAP	11	96	0
TAP	11	96	7
TAP	11	160	1
TAP	11	160	6
TAP	11	192	1
TAP	11	192	6
TAP	11	288	3
TAP	11	288	4
STR	12	0	6
SCL	12	0	6	96	48	3
STR	12	0	7
SCR	12	0	7	96	48	2
TAP	12	64	6
TAP	12	64	7
TAP	12	192	1
TAP	12	192	4
TAP	12	288	3
TAP	12	288	4
STR	13	0	0
SCL	13	0	0	96	48	5
STR	13	0	1
SCR	13	0	1	96	48	4
TAP	13	64	0
TAP	13	64	1
TAP	13	192	3
TAP	13	192	6
BRK	13	288	3
BRK	13	288	4
STR	14	0	3
SI_	14	0	3	96	48	7
STR	14	0	4
SI_	14	0	4	96	48	6
TAP	14	64	3
TAP	14	64	4
STR	14	192	3
SI_	14	192	3	96	48	1
STR	14	192	4
SI_	14	192	4	96	48	0
TAP	14	256	3
TAP	14	256	4
STR	15	0	3
SI_	15	0	3	96	48	7
STR	15	0	4
SI_	15	0	4	96	48	6
TAP	15	64	3
TAP	15	64	4
TAP	15	192	0
TAP	15	192	1
TAP	15	288	3
TAP	15	288	4
STR	16	0	6
SCL	16	0	6	96	48	3
STR	16	0	7
SCR	16	0	7	96	48	2
TAP	16	64	6
TAP	16	64	7
TAP	16	192	1
TAP	16	192	4
TAP	16	288	3
TAP	16	288	4
STR	17	0	0
SCL	17	0	0	96	48	5
STR	17	0	1
SCR	17	0	1	96	48	4
TAP	17	64	0
TAP	17	64	1
TAP	17	192	3
TAP	17	192	6
BRK	17	288	3
BRK	17	288	4
STR	18	0	3
SI_	18	0	3	96	48	7
STR	18	0	4
SI_	18	0	4	96	48	6
TAP	18	64	3
TAP	18	64	4
STR	18	192	3
SI_	18	192	3	96	48	1
STR	18	192	4
SI_	18	192	4	96	48	0
TAP	18	256	3
TAP	18	256	4
STR	19	0	3
SI_	19	0	3	96	48	7
STR	19	0	4
SI_	19	0	4	96	48	6
TAP	19	64	3
TAP	19	64	4
TAP	19	192	3
TAP	19	192	4
TAP	19	288	1
TAP	19	288	6
STR	20	0	2
SCL	20	0	2	96	48	0
STR	20	0	5
SCR	20	0	5	96	48	7
TAP	20	64	2
TAP	20	64	5
TAP	20	192	3
TAP	20	192	4
TAP	20	288	0
TAP	20	288	7
STR	21	0	3
SCL	21	0	3	96	48	1
STR	21	0	4
SCR	21	0	4	96	48	6
TAP	21	64	3
TAP	21	64	4
TAP	21	192	3
TAP	21	192	4
BRK	21	288	0
BRK	21	288	1
STR	22	0	3
SCL	22	0	3	96	48	1
STR	22	0	5
SCR	22	0	5	96	48	7
TAP	22	64	3
TAP	22	64	5
TAP	22	192	3
TAP	22	192	4
TAP	22	288	6
TAP	22	288	7
STR	23	0	2
SCL	23	0	2	96	48	0
STR	23	0	4
SCR	23	0	4	96	48	6
TAP	23	64	2
TAP	23	64	4
TAP	23	192	3
TAP	23	192	4
BRK	23	288	2
BRK	23	288	5
TAP	24	0	0
TAP	24	0	6
TAP	24	96	3
TAP	24	96	4
TAP	24	192	1
TAP	24	192	7
TAP	24	288	3
TAP	24	288	4
TAP	25	0	6
TAP	25	0	7
TAP	25	96	3
TAP	25	96	4
TAP	25	192	0
TAP	25	192	1
BRK	25	288	3
BRK	25	288	4
STR	26	0	0
SXL	26	0	0	96	192	1
STR	26	0	7
SXR	26	0	7	96	192	6
TAP	27	0	0
TAP	27	0	6
TAP	27	96	1
TAP	27	96	7
TAP	27	160	0
TAP	27	160	6
TAP	27	192	0
TAP	27	192	6
BRK	27	288	2
BRK	27	288	5
TAP	28	0	0
HLD	28	0	7	192
TAP	28	96	6
HLD	28	192	0	192
TAP	28	288	1
BRK	29	0	7
BRK	29	96	3
BRK	29	96	4
BRK	29	192	2
BRK	29	192	5
BRK	29	288	1
BRK	29	288	6
STR	30	0	3
SCL	30	0	3	96	48	0
STR	30	0	4
SCR	30	0	4	96	48	7
TAP	30	64	3
TAP	30	64	4
TAP	30	192	3
TAP	30	192	4
TAP	30	288	0
TAP	30	288	7
STR	31	0	3
SCL	31	0	3	96	48	0
STR	31	0	4
SCR	31	0	4	96	48	7
TAP	31	64	3
TAP	31	64	4
TAP	31	192	3
TAP	31	192	4
BRK	31	288	0
BRK	31	288	1
STR	32	0	4
SCL	32	0	4	96	48	1
STR	32	0	5
SCR	32	0	5	96	48	0
TAP	32	64	4
TAP	32	64	5
TAP	32	192	3
TAP	32	192	4
TAP	32	288	6
TAP	32	288	7
STR	33	0	2
SCL	33	0	2	96	48	7
STR	33	0	3
SCR	33	0	3	96	48	6
TAP	33	64	2
TAP	33	64	3
TAP	33	192	3
TAP	33	192	4
BRK	33	288	2
BRK	33	288	5
TAP	34	0	0
TAP	34	0	6
TAP	34	96	3
TAP	34	96	4
TAP	34	192	1
TAP	34	192	7
TAP	34	288	3
TAP	34	288	4
TAP	35	0	6
TAP	35	0	7
TAP	35	96	3
TAP	35	96	4
TAP	35	192	0
TAP	35	192	1
BRK	35	288	0
BRK	35	288	7
STR	36	0	3
SCL	36	0	3	96	96	0
STR	36	0	4
SCR	36	0	4	96	96	7
TAP	36	288	0
TAP	36	288	7
TAP	37	0	0
TAP	37	0	5
TAP	37	96	2
TAP	37	96	7
TAP	37	160	0
TAP	37	160	5
TAP	37	192	0
TAP	37	192	5
BRK	37	288	1
BRK	37	288	6
HLD	38	0	0	192
TAP	38	0	7
TAP	38	96	2
HLD	38	192	7	192
TAP	38	288	5
TAP	39	0	0
TAP	39	96	2
TAP	39	96	5
TAP	39	160	3
TAP	39	160	4
TAP	39	192	3
TAP	39	192	4
TAP	39	288	3
TAP	39	288	4
STR	40	0	6
SCL	40	0	6	96	48	3
STR	40	0	7
SCR	40	0	7	96	48	2
TAP	40	64	6
TAP	40	64	7
TAP	40	192	1
TAP	40	192	4
TAP	40	288	2
TAP	40	288	5
STR	41	0	0
SCL	41	0	0	96	48	5
STR	41	0	1
SCR	41	0	1	96	48	4
TAP	41	64	0
TAP	41	64	1
TAP	41	192	3
TAP	41	192	6
BRK	41	288	2
BRK	41	288	5
STR	42	0	3
SI_	42	0	3	96	48	0
STR	42	0	4
SI_	42	0	4	96	48	6
TAP	42	64	3
TAP	42	64	4
STR	42	192	3
SI_	42	192	3	96	48	1
STR	42	192	4
SI_	42	192	4	96	48	7
TAP	42	256	3
TAP	42	256	4
STR	43	0	3
SI_	43	0	3	96	48	0
STR	43	0	4
SI_	43	0	4	96	48	6
TAP	43	64	3
TAP	43	64	4
TAP	43	192	0
TAP	43	192	1
TAP	43	288	3
TAP	43	288	4
STR	44	0	6
SCL	44	0	6	96	48	3
STR	44	0	7
SCR	44	0	7	96	48	2
TAP	44	64	6
TAP	44	64	7
TAP	44	192	1
TAP	44	192	4
TAP	44	288	2
TAP	44	288	5
STR	45	0	0
SCL	45	0	0	96	48	5
STR	45	0	1
SCR	45	0	1	96	48	4
TAP	45	64	0
TAP	45	64	1
TAP	45	192	3
TAP	45	192	6
BRK	45	288	2
BRK	45	288	5
STR	46	0	3
SI_	46	0	3	96	48	7
STR	46	0	4
SI_	46	0	4	96	48	6
TAP	46	64	3
TAP	46	64	4
STR	46	192	3
SI_	46	192	3	96	48	1
STR	46	192	4
SI_	46	192	4	96	48	0
TAP	46	256	3
TAP	46	256	4
STR	47	0	3
SI_	47	0	3	96	48	7
STR	47	0	4
SI_	47	0	4	96	48	6
TAP	47	64	3
TAP	47	64	4
TAP	47	192	0
TAP	47	192	1
TAP	47	288	3
TAP	47	288	4
STR	48	0	6
SCL	48	0	6	96	48	3
STR	48	0	7
SCR	48	0	7	96	48	2
TAP	48	64	6
TAP	48	64	7
TAP	48	192	1
TAP	48	192	4
TAP	48	288	2
TAP	48	288	5
STR	49	0	0
SCL	49	0	0	96	48	5
STR	49	0	1
SCR	49	0	1	96	48	4
TAP	49	64	0
TAP	49	64	1
TAP	49	192	3
TAP	49	192	6
BRK	49	288	2
BRK	49	288	5
STR	50	0	3
SUR	50	0	3	96	48	7
STR	50	0	4
SCR	50	0	4	96	48	6
TAP	50	64	3
TAP	50	64	4
STR	50	192	3
SCL	50	192	3	96	48	1
STR	50	192	4
SUL	50	192	4	96	48	0
TAP	50	256	3
TAP	50	256	4
STR	51	0	3
SUR	51	0	3	96	48	7
STR	51	0	4
SCR	51	0	4	96	48	6
TAP	51	64	3
TAP	51	64	4
TAP	51	192	3
TAP	51	192	4
TAP	51	288	1
TAP	51	288	7
HLD	52	0	7	96
HLD	52	96	6	96
HLD	52	192	5	96
STR	52	288	4
SUL	52	288	4	96	120	2
TAP	53	192	0
TAP	53	192	6

T_REC_TAP	277
T_REC_BRK	35
T_REC_XTP	0
T_REC_HLD	23
T_REC_XHO	0
T_REC_STR	71
T_REC_BST	0
T_REC_XST	0
T_REC_TTP	0
T_REC_THO	0
T_REC_SLD	71
T_REC_ALL	477
T_NUM_TAP	348
T_NUM_BRK	35
T_NUM_HLD	23
T_NUM_SLD	71
T_NUM_ALL	477
T_JUDGE_TAP	383
T_JUDGE_HLD	58
T_JUDGE_SLD	71
T_JUDGE_ALL	512
TTM_EACHPAIRS	195
TTM_SCR_TAP	174000
TTM_SCR_BRK	91000
TTM_SCR_HLD	23000
TTM_SCR_SLD	106500
TTM_SCR_ALL	394500
TTM_SCR_S	379300
TTM_SCR_SS	391000
TTM_RAT_ACV	10089

