VERSION	0.00.00	1.03.00
FES_MODE	0
BPM_DEF	136.000	136.000	136.000	136.000
MET_DEF	4	4
RESOLUTION	384
CLK_DEF	384
COMPATIBLE_CODE	MA2

BPM	0	0	136.000
MET	0	0	4	4

TAP	1	0	4
TAP	1	96	3
TAP	1	192	3
TAP	1	192	4
TAP	2	0	2
TAP	2	96	2
TAP	2	192	2
TAP	2	192	3
TAP	3	0	5
TAP	3	96	5
TAP	3	192	4
TAP	3	192	5
TAP	4	0	3
TAP	4	96	3
TAP	4	192	2
TAP	4	192	4
TAP	5	0	4
TAP	5	96	4
TAP	5	192	3
TAP	5	192	5
TAP	6	0	3
TAP	6	96	2
TAP	6	192	0
TAP	6	192	1
TAP	7	0	4
TAP	7	96	5
TAP	7	192	6
TAP	7	192	7
TAP	8	0	1
TAP	8	96	0
TAP	8	192	0
TAP	8	192	1
TAP	9	0	6
TAP	9	96	7
TAP	9	192	6
TAP	9	192	7
TAP	10	0	6
TAP	10	0	7
TAP	10	96	6
TAP	10	96	7
TAP	10	192	0
TAP	10	192	1
TAP	10	288	0
TAP	10	288	1
TAP	11	0	0
TAP	11	0	7
TAP	11	96	0
TAP	11	96	7
BRK	11	192	1
BRK	11	192	6
TAP	12	0	1
TAP	12	96	0
TAP	12	192	0
TAP	12	192	1
TAP	13	0	2
TAP	13	96	3
TAP	13	192	2
TAP	13	192	3
TAP	14	0	6
TAP	14	96	7
TAP	14	192	6
TAP	14	192	7
TAP	15	0	5
TAP	15	96	4
TAP	15	192	4
TAP	15	192	5
TAP	16	0	6
TAP	16	96	7
TAP	16	192	6
TAP	16	192	7
TAP	17	0	5
TAP	17	96	4
TAP	17	192	4
TAP	17	192	5
TAP	18	0	1
TAP	18	96	0
TAP	18	192	0
TAP	18	192	1
TAP	19	0	2
TAP	19	96	3
TAP	19	192	2
TAP	19	192	3
HLD	20	0	1	192
TAP	20	192	0
HLD	21	0	6	192
TAP	21	192	7
HLD	22	0	1	192
TAP	22	192	2
HLD	23	0	6	192
TAP	23	192	5
HLD	24	0	2	192
TAP	24	192	3
HLD	25	0	5	192
TAP	25	192	4
HLD	26	0	2	192
TAP	26	192	1
HLD	27	0	5	192
TAP	27	192	6
STR	28	0	3
SI_	28	0	3	96	192	0
STR	28	0	4
SI_	28	0	4	96	192	7
TAP	29	0	0
TAP	29	96	7
TAP	29	192	0
TAP	29	192	7
TAP	29	288	1
TAP	29	288	6
HLD	30	0	2	288
TAP	30	192	3
TAP	30	288	3
HLD	31	0	5	288
TAP	31	192	4
TAP	31	288	4
HLD	32	0	1	288
TAP	32	192	2
TAP	32	288	2
HLD	33	0	6	288
TAP	33	192	5
TAP	33	288	5
HLD	34	0	1	288
TAP	34	192	0
TAP	34	288	0
HLD	35	0	6	288
TAP	35	192	7
TAP	35	288	7
HLD	36	0	2	288
TAP	36	192	1
TAP	36	288	1
HLD	37	0	5	288
TAP	37	192	6
TAP	37	288	6
STR	38	0	0
SI_	38	0	0	96	192	3
STR	38	0	7
SI_	38	0	7	96	192	4
TAP	39	0	3
TAP	39	96	4
TAP	39	192	2
TAP	39	192	5
TAP	40	0	2
TAP	40	96	2
TAP	40	192	1
TAP	40	192	3
TAP	41	0	5
TAP	41	96	5
TAP	41	192	4
TAP	41	192	6
TAP	42	0	2
TAP	42	96	2
TAP	42	96	3
TAP	42	192	5
TAP	42	288	4
TAP	42	288	5
TAP	43	0	3
TAP	43	96	4
TAP	43	192	2
TAP	43	192	5
TAP	44	0	1
TAP	44	96	1
TAP	44	192	0
TAP	44	192	2
TAP	45	0	6
TAP	45	96	6
TAP	45	192	5
TAP	45	192	7
TAP	46	0	1
TAP	46	96	0
TAP	46	96	1
TAP	46	192	6
TAP	46	288	6
TAP	46	288	7
TAP	47	0	0
TAP	47	96	7
TAP	47	192	1
TAP	47	192	6
TAP	48	0	2
TAP	48	96	2
TAP	48	96	3
TAP	48	192	2
TAP	48	192	3
TAP	49	0	5
TAP	49	96	4
TAP	49	96	5
TAP	49	192	4
TAP	49	192	5
TAP	50	0	0
TAP	50	96	7
TAP	50	192	0
TAP	50	192	7
TAP	50	288	1
TAP	50	288	6
TAP	51	0	0
TAP	51	96	7
TAP	51	192	1
TAP	51	192	6
TAP	52	0	6
TAP	52	0	7
TAP	52	96	6
TAP	52	96	7
TAP	52	192	0
TAP	52	192	1
STR	52	288	0
SI_	52	288	0	96	192	5
STR	52	288	1
SI_	52	288	1	96	192	4

T_REC_TAP	176
T_REC_BRK	2
T_REC_XTP	0
T_REC_HLD	16
T_REC_XHO	0
T_REC_STR	6
T_REC_BST	0
T_REC_XST	0
T_REC_TTP	0
T_REC_THO	0
T_REC_SLD	6
T_REC_ALL	206
T_NUM_TAP	182
T_NUM_BRK	2
T_NUM_HLD	16
T_NUM_SLD	6
T_NUM_ALL	206
T_JUDGE_TAP	184
T_JUDGE_HLD	80
T_JUDGE_SLD	6
T_JUDGE_ALL	270
TTM_EACHPAIRS	50
TTM_SCR_TAP	91000
TTM_SCR_BRK	5200
TTM_SCR_HLD	16000
TTM_SCR_SLD	9000
TTM_SCR_ALL	121200
TTM_SCR_S	117400
TTM_SCR_SS	121000
TTM_RAT_ACV	10016

