VERSION	0.00.00	1.03.00
FES_MODE	0
BPM_DEF	136.000	136.000	136.000	103.000
MET_DEF	4	4
RESOLUTION	384
CLK_DEF	384
COMPATIBLE_CODE	MA2

BPM	0	0	136.000
BPM	52	288	134.000
BPM	53	0	121.000
BPM	53	96	116.000
BPM	53	192	103.000
MET	0	0	4	4

TAP	2	0	3
TAP	2	96	3
TAP	2	192	3
TAP	2	192	4
TAP	3	0	4
TAP	3	96	4
TAP	3	192	3
TAP	3	192	4
TAP	4	0	2
TAP	4	96	2
TAP	4	192	2
TAP	4	192	3
TAP	5	0	5
TAP	5	96	5
TAP	5	192	4
TAP	5	192	5
TAP	6	0	2
TAP	6	0	3
TAP	6	192	4
TAP	6	192	5
TAP	7	0	2
TAP	7	96	3
TAP	7	192	4
TAP	7	192	5
TAP	8	0	4
TAP	8	0	5
TAP	8	192	2
TAP	8	192	3
TAP	9	0	5
TAP	9	96	4
TAP	9	192	2
TAP	9	192	3
TAP	10	0	3
TAP	10	0	4
TAP	10	192	3
TAP	10	192	4
TAP	11	0	3
TAP	11	0	4
TAP	11	96	3
TAP	11	96	4
BRK	11	192	2
BRK	11	192	5
TAP	12	0	3
TAP	12	0	5
TAP	12	192	3
TAP	12	192	4
TAP	13	0	2
TAP	13	0	4
TAP	13	192	3
TAP	13	192	4
TAP	14	0	7
TAP	14	192	0
TAP	15	0	6
TAP	15	0	7
TAP	15	192	0
TAP	15	192	1
TAP	16	0	3
TAP	16	0	5
TAP	16	192	3
TAP	16	192	4
TAP	17	0	2
TAP	17	0	4
TAP	17	192	3
TAP	17	192	4
TAP	18	0	7
TAP	18	192	0
TAP	19	0	6
TAP	19	0	7
TAP	19	192	0
TAP	19	192	1
TAP	20	0	3
TAP	20	96	3
TAP	20	192	2
TAP	20	192	4
TAP	21	0	4
TAP	21	96	4
TAP	21	192	3
TAP	21	192	5
TAP	22	0	2
TAP	22	96	2
TAP	22	192	2
TAP	22	192	4
TAP	23	0	5
TAP	23	96	5
TAP	23	192	3
TAP	23	192	5
TAP	24	0	6
TAP	24	0	7
TAP	24	192	4
TAP	24	192	5
TAP	25	0	2
TAP	25	0	3
TAP	25	192	0
TAP	25	192	1
HLD	26	0	0	192
HLD	26	0	7	192
TAP	27	0	0
TAP	27	0	7
TAP	27	96	0
TAP	27	96	7
TAP	27	192	0
TAP	27	192	7
TAP	28	0	0
TAP	28	0	1
TAP	28	192	6
TAP	28	192	7
TAP	29	0	0
TAP	29	0	7
BRK	29	192	0
BRK	29	192	7
TAP	30	0	7
TAP	30	96	7
TAP	30	192	0
TAP	30	192	6
TAP	31	0	0
TAP	31	96	0
TAP	31	192	1
TAP	31	192	7
TAP	32	0	6
TAP	32	96	6
TAP	32	192	6
TAP	32	192	7
TAP	33	0	1
TAP	33	96	1
TAP	33	192	0
TAP	33	192	1
TAP	34	0	2
TAP	34	0	3
TAP	34	192	0
TAP	34	192	1
TAP	35	0	6
TAP	35	0	7
TAP	35	192	4
TAP	35	192	5
HLD	36	0	3	192
HLD	36	0	4	192
TAP	37	0	3
TAP	37	0	4
TAP	37	96	3
TAP	37	96	4
TAP	37	192	3
TAP	37	192	4
TAP	38	0	3
TAP	38	0	5
TAP	38	192	2
TAP	38	192	4
TAP	39	0	3
TAP	39	0	4
TAP	39	96	3
TAP	39	96	4
BRK	39	192	2
BRK	39	192	5
TAP	40	0	3
TAP	40	0	5
TAP	40	192	3
TAP	40	192	4
TAP	41	0	2
TAP	41	0	4
TAP	41	192	3
TAP	41	192	4
TAP	42	0	7
TAP	42	192	0
TAP	43	0	6
TAP	43	0	7
TAP	43	192	0
TAP	43	192	1
TAP	44	0	3
TAP	44	0	5
TAP	44	192	3
TAP	44	192	4
TAP	45	0	2
TAP	45	0	4
TAP	45	192	3
TAP	45	192	4
TAP	46	0	6
TAP	46	192	1
TAP	47	0	6
TAP	47	0	7
TAP	47	192	0
TAP	47	192	1
TAP	48	0	3
TAP	48	0	5
TAP	48	96	3
TAP	48	96	5
TAP	48	192	3
TAP	48	192	4
TAP	49	0	2
TAP	49	0	4
TAP	49	96	2
TAP	49	96	4
TAP	49	192	3
TAP	49	192	4
TAP	50	0	6
TAP	50	0	7
TAP	50	192	0
TAP	50	192	1
TAP	51	0	6
TAP	51	0	7
TAP	51	192	0
TAP	51	192	1
TAP	52	0	3
TAP	52	0	5
TAP	52	192	2
TAP	52	192	4
STR	53	0	1
SI_	53	0	1	96	192	4

T_REC_TAP	194
T_REC_BRK	6
T_REC_XTP	0
T_REC_HLD	4
T_REC_XHO	0
T_REC_STR	1
T_REC_BST	0
T_REC_XST	0
T_REC_TTP	0
T_REC_THO	0
T_REC_SLD	1
T_REC_ALL	206
T_NUM_TAP	195
T_NUM_BRK	6
T_NUM_HLD	4
T_NUM_SLD	1
T_NUM_ALL	206
T_JUDGE_TAP	201
T_JUDGE_HLD	16
T_JUDGE_SLD	1
T_JUDGE_ALL	218
TTM_EACHPAIRS	84
TTM_SCR_TAP	97500
TTM_SCR_BRK	15600
TTM_SCR_HLD	4000
TTM_SCR_SLD	1500
TTM_SCR_ALL	118600
TTM_SCR_S	114500
TTM_SCR_SS	118000
TTM_RAT_ACV	10050

