VERSION	0.00.00	1.03.00
FES_MODE	0
BPM_DEF	156.000	156.000	156.000	156.000
MET_DEF	4	4
RESOLUTION	384
CLK_DEF	384
COMPATIBLE_CODE	MA2

BPM	0	0	156.000
MET	0	0	4	4

STR	2	0	6
SI_	2	0	6	96	72	2
TAP	2	72	6
STR	2	144	0
SI_	2	144	0	96	48	4
TAP	2	240	0
STR	2	240	2
SI_	2	240	2	96	48	6
TAP	2	336	2
STR	3	0	1
SI_	3	0	1	96	72	5
TAP	3	72	1
STR	3	144	7
SI_	3	144	7	96	48	3
TAP	3	240	1
TAP	3	240	7
TAP	3	288	1
STR	4	0	1
SI_	4	0	1	96	72	5
TAP	4	72	1
STR	4	144	6
SI_	4	144	6	96	48	2
STR	4	240	4
SI_	4	240	4	96	48	0
TAP	4	240	6
TAP	4	336	4
STR	5	0	7
SI_	5	0	7	96	72	3
TAP	5	72	7
STR	5	144	1
SI_	5	144	1	96	48	5
TAP	5	240	1
TAP	5	240	7
TAP	5	288	7
TAP	6	0	2
HLD	6	0	4	96
TAP	6	96	6
HLD	6	192	3	96
TAP	6	192	5
TAP	6	288	1
TAP	7	0	1
HLD	7	0	3	96
TAP	7	96	4
HLD	7	192	4	96
TAP	7	192	6
TAP	7	288	3
TAP	8	0	3
TAP	8	0	7
TAP	8	48	2
TAP	8	48	6
TAP	8	96	1
TAP	8	96	5
TAP	8	144	0
TAP	8	144	4
TAP	8	192	3
TAP	8	192	7
TAP	8	216	0
TAP	8	216	4
TAP	8	240	1
TAP	8	240	5
TAP	8	264	2
TAP	8	264	6
TAP	8	288	7
TAP	8	312	0
TAP	8	336	1
TAP	8	360	2
BRK	9	0	0
TAP	9	0	3
TAP	9	96	2
TAP	9	96	5
TAP	9	120	2
TAP	9	120	5
TAP	9	144	2
TAP	9	144	5
STR	9	192	3
SI_	9	192	3	96	48	0
STR	9	192	4
SI_	9	192	4	96	48	7
TAP	9	240	1
TAP	9	240	6
BRK	9	288	3
BRK	9	288	4
TAP	10	0	2
TAP	10	24	3
HLD	10	48	2	120
TAP	10	96	0
STR	10	168	4
SCR	10	168	4	96	48	7
STR	10	240	0
SCR	10	240	0	96	48	3
TAP	10	240	4
TAP	10	336	0
TAP	11	0	5
TAP	11	24	4
HLD	11	48	5	120
TAP	11	96	7
STR	11	168	3
SCL	11	168	3	96	48	0
TAP	11	240	3
STR	11	240	7
SCL	11	240	7	96	48	4
TAP	11	336	7
TAP	12	0	0
TAP	12	24	3
HLD	12	48	0	120
TAP	12	96	2
STR	12	168	6
SI_	12	168	6	96	48	1
STR	12	240	2
SI_	12	240	2	96	48	5
TAP	12	240	6
TAP	12	336	2
STR	13	0	7
SI_	13	0	7	96	48	3
STR	13	96	1
SI_	13	96	1	96	48	5
TAP	13	96	7
TAP	13	168	1
TAP	13	240	4
TAP	13	288	3
TAP	13	312	5
TAP	13	336	2
TAP	14	0	6
TAP	14	24	7
HLD	14	48	6	120
TAP	14	96	5
STR	14	168	1
SI_	14	168	1	96	48	3
STR	14	240	0
SI_	14	240	0	96	48	4
TAP	14	240	1
TAP	14	336	0
TAP	15	0	1
TAP	15	24	0
HLD	15	48	1	120
TAP	15	96	2
STR	15	168	6
SI_	15	168	6	96	48	4
TAP	15	240	6
STR	15	240	7
SI_	15	240	7	96	48	3
TAP	15	336	7
TAP	16	0	5
TAP	16	24	1
HLD	16	48	5	120
TAP	16	96	6
STR	16	168	4
SI_	16	168	4	96	48	1
STR	16	240	0
SI_	16	240	0	96	48	5
TAP	16	240	4
TAP	16	336	0
STR	17	0	7
SI_	17	0	7	96	48	2
STR	17	96	3
SI_	17	96	3	96	48	6
TAP	17	96	7
TAP	17	168	3
TAP	17	240	0
BRK	17	288	0
TAP	18	0	2
TAP	18	24	2
TAP	18	48	4
TAP	18	72	3
TAP	18	96	3
TAP	18	144	6
TAP	18	168	7
TAP	18	216	1
TAP	18	240	0
TAP	18	288	4
TAP	18	288	5
TAP	18	336	4
TAP	18	336	5
TAP	19	0	3
TAP	19	0	6
TAP	19	48	2
TAP	19	72	3
TAP	19	96	1
TAP	19	120	3
TAP	19	144	2
TAP	19	192	3
TAP	19	192	4
STR	19	240	1
SCR	19	240	1	96	48	3
TAP	19	240	6
TAP	19	336	1
TAP	20	0	5
TAP	20	24	5
TAP	20	48	3
TAP	20	72	4
TAP	20	96	4
TAP	20	144	1
TAP	20	168	0
TAP	20	216	6
TAP	20	240	7
TAP	20	288	2
TAP	20	288	3
TAP	20	336	2
TAP	20	336	3
STR	21	0	6
SI_	21	0	6	96	48	2
TAP	21	48	0
TAP	21	96	6
TAP	21	168	0
TAP	21	240	4
TAP	21	264	3
TAP	21	336	1
TAP	21	336	6
TAP	22	0	0
TAP	22	24	0
TAP	22	48	6
TAP	22	72	7
TAP	22	96	7
TAP	22	144	5
TAP	22	168	4
TAP	22	216	2
TAP	22	240	3
TAP	22	288	1
TAP	22	288	5
TAP	22	336	3
TAP	22	336	7
TAP	23	0	1
TAP	23	0	6
TAP	23	48	5
TAP	23	72	4
TAP	23	96	6
TAP	23	120	4
TAP	23	144	5
TAP	23	192	2
TAP	23	192	5
STR	23	240	0
SI_	23	240	0	96	48	4
TAP	23	240	7
TAP	23	336	0
TAP	24	0	7
TAP	24	24	7
TAP	24	48	1
TAP	24	72	0
TAP	24	96	0
TAP	24	144	2
TAP	24	168	3
TAP	24	216	5
TAP	24	240	4
TAP	24	288	1
TAP	24	288	6
TAP	25	0	3
TAP	25	24	4
TAP	25	48	2
TAP	25	72	5
TAP	25	96	3
TAP	25	120	4
TAP	25	144	1
TAP	25	168	6
TAP	25	192	3
TAP	25	192	7
TAP	25	216	2
TAP	25	216	6
TAP	25	240	1
TAP	25	240	5
TAP	25	264	0
TAP	25	264	4
STR	26	0	0
SI_	26	0	0	96	48	4
TAP	26	0	7
TAP	26	48	7
TAP	26	96	7
TAP	26	168	6
STR	26	192	4
SI_	26	192	4	96	48	2
TAP	26	240	5
TAP	26	288	5
STR	27	0	2
SI_	27	0	2	96	48	0
TAP	27	0	4
TAP	27	48	4
TAP	27	96	4
TAP	27	168	5
STR	27	192	0
SI_	27	192	0	96	48	3
TAP	27	240	6
TAP	27	288	7
TAP	27	312	6
TAP	27	336	5
TAP	28	0	3
STR	28	0	4
SI_	28	0	4	96	48	0
TAP	28	48	3
TAP	28	96	3
TAP	28	168	2
STR	28	192	0
SI_	28	192	0	96	48	6
TAP	28	240	1
TAP	28	288	1
TAP	29	0	0
STR	29	0	6
SI_	29	0	6	96	48	4
TAP	29	48	0
TAP	29	96	0
TAP	29	168	1
STR	29	192	4
SI_	29	192	4	96	48	7
TAP	29	240	2
BRK	29	288	0
STR	30	0	0
SV_	30	0	0	96	48	3
TAP	30	0	7
TAP	30	48	7
TAP	30	96	7
TAP	30	120	7
TAP	30	168	6
STR	30	192	3
SCL	30	192	3	96	48	0
TAP	30	240	5
TAP	30	288	5
TAP	31	0	0
STR	31	0	7
SV_	31	0	7	96	48	4
TAP	31	48	0
TAP	31	96	0
TAP	31	120	0
TAP	31	168	1
STR	31	192	4
SCR	31	192	4	96	48	7
TAP	31	240	2
TAP	31	288	2
STR	32	0	1
SV_	32	0	1	96	48	4
TAP	32	0	7
TAP	32	48	7
TAP	32	96	7
TAP	32	120	7
TAP	32	168	6
STR	32	192	4
SCL	32	192	4	96	48	0
TAP	32	240	5
TAP	32	288	5
TAP	33	0	2
TAP	33	0	7
TAP	33	96	0
TAP	33	120	1
TAP	33	144	7
TAP	33	168	6
TAP	33	192	1
TAP	33	216	2
TAP	33	240	6
TAP	33	264	5
TAP	33	288	2
TAP	33	312	3
TAP	33	336	5
TAP	33	360	4
STR	34	0	0
SI_	34	0	0	96	48	4
BRK	34	96	0
TAP	34	96	6
TAP	34	168	6
STR	34	192	4
SI_	34	192	4	96	48	2
TAP	34	240	6
TAP	34	288	6
STR	35	0	2
SI_	35	0	2	96	48	0
TAP	35	0	5
TAP	35	48	5
TAP	35	96	5
TAP	35	120	5
TAP	35	168	4
STR	35	192	0
SI_	35	192	0	96	48	6
TAP	35	240	3
TAP	35	288	3
TAP	36	0	2
STR	36	0	6
SI_	36	0	6	96	48	1
TAP	36	48	2
TAP	36	96	2
TAP	36	120	2
TAP	36	168	3
STR	36	192	1
SI_	36	192	1	96	48	5
TAP	36	240	4
TAP	36	288	4
TAP	37	0	3
TAP	37	48	4
TAP	37	96	3
TAP	37	120	4
TAP	37	168	2
TAP	37	192	5
TAP	37	240	1
TAP	37	264	6
TAP	37	312	0
TAP	37	312	7
TAP	37	336	1
TAP	37	336	6
TAP	37	360	2
TAP	37	360	5
STR	38	0	3
SUL	38	0	3	96	48	6
TAP	38	0	4
TAP	38	48	4
TAP	38	96	4
TAP	38	120	4
TAP	38	168	5
STR	38	192	6
SCR	38	192	6	96	48	2
TAP	38	240	4
TAP	38	288	5
TAP	39	0	3
STR	39	0	4
SUR	39	0	4	96	48	1
TAP	39	48	3
TAP	39	96	3
TAP	39	120	3
TAP	39	168	2
STR	39	192	1
SCL	39	192	1	96	48	5
TAP	39	240	3
TAP	39	288	2
STR	40	0	4
SCL	40	0	4	96	48	1
TAP	40	0	5
TAP	40	48	5
TAP	40	96	5
TAP	40	120	5
TAP	40	168	6
STR	40	192	1
SUL	40	192	1	96	48	4
TAP	40	240	5
TAP	40	288	6
TAP	41	0	2
TAP	41	0	3
TAP	41	72	1
TAP	41	72	6
TAP	41	192	0
TAP	41	192	7
TAP	41	216	0
TAP	41	216	7
TAP	41	240	0
TAP	41	240	7
TAP	41	264	0
TAP	41	264	7
BRK	41	288	1
BRK	41	288	6
TAP	42	0	1
TAP	42	48	0
TAP	42	96	7
HLD	42	144	6	192
TAP	42	240	5
TAP	42	288	4
HLD	42	336	3	192
TAP	43	48	2
TAP	43	96	4
HLD	43	144	5	384
TAP	43	240	2
TAP	43	288	1
TAP	43	336	0
TAP	44	0	7
TAP	44	48	6
TAP	44	96	4
HLD	44	144	3	288
TAP	44	240	5
TAP	44	288	6
TAP	44	336	7
TAP	45	0	0
HLD	45	48	1	96
STR	45	144	7
SV_	45	144	7	96	48	2
STR	45	192	7
SV_	45	192	7	96	48	4
TAP	45	240	7
TAP	45	288	7
HLD	46	0	1	144
TAP	46	96	2
HLD	46	144	2	144
TAP	46	240	6
TAP	46	288	7
STR	46	336	0
SCR	46	336	0	96	96	4
STR	47	48	4
SCR	47	48	4	96	96	0
STR	47	144	0
SI_	47	144	0	96	48	4
TAP	47	240	5
TAP	47	288	6
TAP	47	336	7
HLD	48	48	3	96
TAP	48	96	1
HLD	48	144	4	96
TAP	48	192	6
TAP	48	240	3
STR	48	336	7
SCL	48	336	7	96	96	3
STR	49	48	3
SCL	49	48	3	96	96	7
STR	49	144	7
SCL	49	144	7	96	96	3
TAP	49	240	3
TAP	49	336	0
BRK	50	0	1
HLD	50	0	7	144
TAP	50	96	1
HLD	50	144	1	144
STR	50	240	2
SUL	50	240	2	96	96	5
TAP	50	288	2
STR	51	48	1
SCL	51	48	1	96	96	6
TAP	51	96	1
STR	51	240	4
SUL	51	240	4	96	72	3
TAP	51	288	4
HLD	52	0	1	240
TAP	52	96	7
TAP	52	144	7
TAP	52	192	6
HLD	52	240	6	96
HLD	52	336	4	192
TAP	53	48	1
TAP	53	96	0
HLD	53	144	7	192
TAP	53	240	3
TAP	53	288	2
HLD	53	336	1	144
STR	54	96	2
SI_	54	96	2	96	48	6
STR	54	144	0
SI_	54	144	0	96	48	4
TAP	54	192	2
TAP	54	240	0
STR	54	336	7
SI_	54	336	7	96	48	3
STR	55	48	0
SI_	55	48	0	96	48	4
STR	55	144	6
SI_	55	144	6	96	48	2
TAP	55	240	1
TAP	55	336	7
TAP	56	0	6
TAP	56	48	5
TAP	56	96	4
HLD	56	144	3	288
TAP	56	240	2
TAP	56	288	4
TAP	56	336	5
TAP	57	0	6
HLD	57	48	7	96
TAP	57	144	3
TAP	57	192	2
TAP	57	192	4
TAP	57	240	1
TAP	57	240	5
TAP	57	288	0
TAP	57	288	6
TAP	58	0	3
TAP	58	0	4
TAP	58	48	6
TAP	58	96	3
TAP	58	96	4
TAP	58	144	1
TAP	58	192	3
TAP	58	192	4
TAP	58	240	7
TAP	58	288	3
TAP	58	288	4
TAP	58	336	0
TAP	59	0	4
TAP	59	0	5
TAP	59	48	0
TAP	59	96	2
TAP	59	96	3
TAP	59	144	7
TAP	59	192	4
TAP	59	192	6
TAP	59	240	0
TAP	59	288	1
TAP	59	288	3
TAP	59	336	7
TAP	60	0	2
TAP	60	0	3
TAP	60	48	1
TAP	60	48	4
TAP	60	96	4
TAP	60	96	5
TAP	60	144	3
TAP	60	144	6
TAP	60	192	2
TAP	60	192	3
TAP	60	240	0
TAP	60	240	5
TAP	60	288	4
TAP	60	288	5
TAP	60	336	2
TAP	60	336	7
TAP	61	0	2
TAP	61	0	3
TAP	61	48	0
TAP	61	48	7
TAP	61	96	4
TAP	61	96	5
TAP	61	144	0
TAP	61	144	7
TAP	61	192	2
TAP	61	192	3
TAP	61	240	0
TAP	61	240	6
TAP	61	288	4
TAP	61	288	5
TAP	62	0	0
TAP	62	24	0
TAP	62	48	1
TAP	62	72	1
TAP	62	96	2
TAP	62	120	2
TAP	62	144	3
TAP	62	168	3
TAP	62	192	4
TAP	62	216	4
TAP	62	240	5
TAP	62	264	5
TAP	62	288	6
TAP	62	312	6
TAP	62	336	7
TAP	62	360	7
TAP	63	0	0
TAP	63	24	7
TAP	63	48	1
TAP	63	72	6
TAP	63	96	2
TAP	63	120	5
TAP	63	144	3
TAP	63	168	4
TAP	63	192	3
TAP	63	216	4
TAP	63	240	2
TAP	63	264	5
TAP	63	288	1
TAP	63	312	6
TAP	63	336	0
TAP	63	360	7
TAP	64	0	0
TAP	64	36	7
TAP	64	48	6
TAP	64	60	5
TAP	64	120	1
TAP	64	132	2
TAP	64	144	3
TAP	64	204	6
TAP	64	216	5
TAP	64	228	4
TAP	64	276	0
TAP	64	288	1
TAP	64	324	7
TAP	64	336	6
TAP	65	0	0
TAP	65	96	3
TAP	65	96	7
TAP	65	120	2
TAP	65	120	6
TAP	65	144	1
TAP	65	144	5
TAP	65	168	0
TAP	65	168	4
STR	65	192	3
SI_	65	192	3	96	48	0
STR	65	192	7
SI_	65	192	7	96	48	4
TAP	65	240	1
TAP	65	240	5
BRK	65	288	3
BRK	65	288	7
STR	66	0	0
SI_	66	0	0	96	48	4
TAP	66	96	0
TAP	66	96	7
TAP	66	144	7
STR	66	192	4
SV_	66	192	4	96	48	2
TAP	66	240	6
TAP	66	288	7
TAP	66	336	6
STR	67	0	2
SV_	67	0	2	96	48	0
TAP	67	48	5
TAP	67	96	4
TAP	67	144	5
STR	67	192	0
SCR	67	192	0	96	48	3
TAP	67	240	7
TAP	67	288	6
TAP	67	336	5
TAP	68	0	3
STR	68	0	4
SI_	68	0	4	96	48	0
TAP	68	48	3
TAP	68	96	2
TAP	68	144	2
STR	68	192	0
SV_	68	192	0	96	48	6
TAP	68	240	1
TAP	68	288	2
TAP	68	336	3
TAP	69	0	2
STR	69	0	6
SV_	69	0	6	96	48	4
TAP	69	48	1
TAP	69	96	2
TAP	69	144	3
TAP	69	192	2
STR	69	192	4
SCR	69	192	4	96	48	7
TAP	69	240	3
BRK	69	288	0
TAP	70	0	0
STR	70	0	1
SCR	70	0	1	96	48	4
TAP	70	48	0
TAP	70	96	6
TAP	70	144	6
STR	70	192	4
SUL	70	192	4	96	48	7
TAP	70	192	7
TAP	70	240	7
TAP	70	288	6
TAP	70	336	6
STR	71	0	6
SCL	71	0	6	96	48	3
TAP	71	0	7
TAP	71	48	7
TAP	71	96	1
TAP	71	144	1
TAP	71	192	0
STR	71	192	3
SUR	71	192	3	96	48	0
TAP	71	240	1
TAP	71	288	2
TAP	71	336	3
STR	72	0	0
SCL	72	0	0	96	48	5
TAP	72	48	2
TAP	72	96	1
TAP	72	144	0
TAP	72	192	4
STR	72	192	7
SCR	72	192	7	96	48	2
TAP	72	240	5
TAP	72	288	6
STR	72	336	7
SI_	72	336	7	96	48	3
STR	73	48	1
SI_	73	48	1	96	48	5
TAP	73	48	7
STR	73	144	0
SI_	73	144	0	96	48	4
TAP	73	144	1
TAP	73	240	0
BRK	73	288	1
STR	74	0	0
SI_	74	0	0	96	48	4
TAP	74	0	7
TAP	74	48	7
STR	74	96	0
SCR	74	96	0	96	48	2
TAP	74	96	6
TAP	74	144	6
STR	74	192	0
SI_	74	192	0	96	48	3
TAP	74	240	5
TAP	74	288	4
TAP	74	336	5
STR	75	0	7
SI_	75	0	7	96	48	3
TAP	75	48	0
TAP	75	96	1
STR	75	96	7
SCL	75	96	7	96	48	5
TAP	75	144	0
STR	75	192	7
SI_	75	192	7	96	48	4
TAP	75	240	2
TAP	75	288	3
TAP	75	336	2
STR	76	0	0
SCR	76	0	0	96	48	2
TAP	76	0	4
TAP	76	48	4
STR	76	96	0
SI_	76	96	0	96	48	4
TAP	76	96	5
TAP	76	144	5
STR	76	192	0
SCR	76	192	0	96	48	3
TAP	76	192	6
TAP	76	240	6
TAP	76	288	5
TAP	76	336	5
STR	77	0	7
SCL	77	0	7	96	48	5
TAP	77	48	3
TAP	77	96	3
STR	77	96	7
SI_	77	96	7	96	48	3
TAP	77	144	3
STR	77	192	7
SCL	77	192	7	96	48	4
TAP	77	240	2
TAP	77	288	2
STR	78	0	1
SCR	78	0	1	96	48	4
TAP	78	96	0
TAP	78	144	7
TAP	78	192	6
STR	78	240	5
SUR	78	240	5	96	48	2
STR	78	336	1
SCL	78	336	1	96	48	6
TAP	78	336	5
TAP	79	48	1
STR	79	48	3
SUR	79	48	3	96	96	4
TAP	79	144	3
TAP	79	240	0
TAP	79	288	0
TAP	80	0	2
TAP	80	0	3
TAP	80	48	6
TAP	80	48	7
TAP	80	96	4
TAP	80	96	5
TAP	80	144	0
TAP	80	144	1
TAP	80	192	3
TAP	80	216	4
TAP	80	240	2
TAP	80	264	5
TAP	80	288	1
TAP	80	312	6
TAP	80	336	0
TAP	80	360	7
TAP	81	0	1
TAP	81	24	5
TAP	81	48	3
TAP	81	72	7
TAP	81	96	0
TAP	81	120	4
TAP	81	144	2
TAP	81	168	6
TAP	81	192	3
TAP	81	216	7
TAP	81	240	1
TAP	81	264	5
STR	81	288	0
SI_	81	288	0	96	48	4
TAP	81	312	6
TAP	81	336	2
TAP	81	360	4
BRK	82	0	0

T_REC_TAP	595
T_REC_BRK	14
T_REC_XTP	0
T_REC_HLD	28
T_REC_XHO	0
T_REC_STR	109
T_REC_BST	0
T_REC_XST	0
T_REC_TTP	0
T_REC_THO	0
T_REC_SLD	109
T_REC_ALL	855
T_NUM_TAP	704
T_NUM_BRK	14
T_NUM_HLD	28
T_NUM_SLD	109
T_NUM_ALL	855
T_JUDGE_TAP	718
T_JUDGE_HLD	92
T_JUDGE_SLD	109
T_JUDGE_ALL	919
TTM_EACHPAIRS	131
TTM_SCR_TAP	352000
TTM_SCR_BRK	36400
TTM_SCR_HLD	28000
TTM_SCR_SLD	163500
TTM_SCR_ALL	579900
TTM_SCR_S	561150
TTM_SCR_SS	578500
TTM_RAT_ACV	10024

