VERSION	0.00.00	1.03.00
FES_MODE	0
BPM_DEF	156.000	156.000	156.000	156.000
MET_DEF	4	4
RESOLUTION	384
CLK_DEF	384
COMPATIBLE_CODE	MA2

BPM	0	0	156.000
MET	0	0	4	4

HLD	2	0	2	96
TAP	2	96	3
HLD	2	192	5	96
TAP	2	288	4
TAP	3	0	6
TAP	3	0	7
TAP	3	72	3
TAP	3	72	4
TAP	3	144	0
TAP	3	144	1
TAP	3	288	2
TAP	3	288	5
HLD	4	0	4	96
TAP	4	96	5
HLD	4	192	3	96
TAP	4	288	2
TAP	5	0	0
TAP	5	0	1
TAP	5	72	3
TAP	5	72	4
TAP	5	144	6
TAP	5	144	7
TAP	5	288	2
TAP	5	288	5
HLD	6	0	1	96
TAP	6	96	2
HLD	6	192	6	96
TAP	6	288	5
TAP	7	0	3
TAP	7	0	4
TAP	7	72	0
TAP	7	72	5
TAP	7	144	2
TAP	7	144	7
TAP	7	240	1
TAP	7	240	6
TAP	7	288	1
TAP	7	288	6
TAP	8	0	0
TAP	8	48	0
TAP	8	96	7
TAP	8	144	7
TAP	8	192	0
TAP	8	216	7
TAP	8	240	0
TAP	8	264	7
TAP	8	288	0
TAP	8	312	7
TAP	8	336	0
TAP	8	360	7
BRK	9	0	0
TAP	9	72	1
TAP	9	72	6
TAP	9	144	2
TAP	9	144	5
STR	9	192	2
SI_	9	192	2	96	48	7
STR	9	192	5
SI_	9	192	5	96	48	0
TAP	10	0	0
TAP	10	0	7
TAP	10	96	2
TAP	10	96	3
TAP	10	168	2
TAP	10	168	3
TAP	10	288	5
TAP	10	288	6
TAP	11	0	0
TAP	11	0	7
TAP	11	96	4
TAP	11	96	5
TAP	11	168	4
TAP	11	168	5
TAP	11	288	1
TAP	11	288	2
TAP	12	0	0
TAP	12	0	7
TAP	12	96	2
TAP	12	96	4
TAP	12	168	3
TAP	12	168	5
TAP	12	288	1
TAP	12	288	6
TAP	13	0	3
TAP	13	0	4
TAP	13	96	1
TAP	13	96	7
TAP	13	168	0
TAP	13	168	6
TAP	13	240	1
TAP	13	288	2
TAP	13	336	3
TAP	14	0	4
TAP	14	0	5
TAP	14	96	6
TAP	14	96	7
TAP	14	168	0
TAP	14	168	5
TAP	14	288	3
TAP	14	288	4
TAP	15	0	2
TAP	15	0	3
TAP	15	96	0
TAP	15	96	1
TAP	15	168	2
TAP	15	168	7
TAP	15	288	3
TAP	15	288	4
TAP	16	0	0
TAP	16	0	7
TAP	16	96	2
TAP	16	96	5
STR	16	168	3
SI_	16	168	3	96	48	6
STR	16	168	4
SI_	16	168	4	96	48	1
TAP	17	0	0
TAP	17	0	7
TAP	17	96	2
TAP	17	96	3
TAP	17	168	4
TAP	17	168	5
BRK	17	288	1
BRK	17	288	6
STR	18	0	2
SCL	18	0	2	96	48	7
TAP	18	48	2
TAP	18	192	6
TAP	18	240	7
TAP	18	288	6
TAP	19	0	3
TAP	19	48	4
TAP	19	96	3
TAP	19	192	0
TAP	19	192	1
TAP	19	288	3
TAP	19	288	6
STR	20	0	5
SCR	20	0	5	96	48	0
TAP	20	48	5
TAP	20	192	1
TAP	20	240	0
TAP	20	288	1
TAP	21	0	4
TAP	21	48	3
TAP	21	96	4
TAP	21	192	6
TAP	21	192	7
TAP	21	288	1
TAP	21	288	4
STR	22	0	2
SCR	22	0	2	96	48	5
TAP	22	48	2
TAP	22	192	6
TAP	22	240	5
TAP	22	288	4
TAP	23	0	1
TAP	23	48	2
TAP	23	96	3
TAP	23	192	4
TAP	23	192	5
TAP	23	288	2
TAP	23	288	7
TAP	24	0	3
TAP	24	0	4
TAP	24	48	2
TAP	24	48	5
TAP	24	96	1
TAP	24	96	6
STR	24	168	3
SI_	24	168	3	96	48	0
STR	24	168	4
SI_	24	168	4	96	48	7
TAP	25	0	0
TAP	25	0	7
TAP	25	48	1
TAP	25	96	0
TAP	25	96	7
TAP	25	144	6
TAP	25	192	0
TAP	25	192	7
TAP	25	288	0
TAP	25	312	7
TAP	25	336	0
TAP	25	360	7
TAP	26	0	0
TAP	26	48	1
TAP	26	96	2
TAP	26	168	3
TAP	26	168	4
TAP	26	240	5
TAP	26	288	4
TAP	26	288	6
TAP	27	0	7
TAP	27	48	6
TAP	27	96	5
TAP	27	168	3
TAP	27	168	4
TAP	27	240	2
TAP	27	288	1
TAP	27	288	3
TAP	28	0	4
TAP	28	48	5
TAP	28	96	6
TAP	28	168	0
TAP	28	168	7
TAP	28	240	1
TAP	28	288	0
TAP	28	288	2
TAP	29	0	3
TAP	29	48	2
TAP	29	96	1
TAP	29	168	0
TAP	29	168	7
TAP	29	240	6
TAP	29	288	5
TAP	29	288	7
TAP	30	0	5
TAP	30	48	4
TAP	30	96	3
TAP	30	168	1
TAP	30	168	2
TAP	30	240	6
TAP	30	240	7
TAP	30	288	0
TAP	30	288	5
TAP	31	0	2
TAP	31	48	3
TAP	31	96	4
TAP	31	168	5
TAP	31	168	6
TAP	31	240	0
TAP	31	240	1
TAP	31	288	2
TAP	31	288	7
TAP	32	0	5
TAP	32	48	4
TAP	32	96	3
TAP	32	168	1
TAP	32	168	2
TAP	32	240	5
TAP	32	240	6
TAP	32	288	0
TAP	32	288	7
STR	33	0	3
SUR	33	0	3	96	192	0
STR	33	0	4
SUL	33	0	4	96	192	7
STR	34	0	0
SI_	34	0	0	96	48	5
STR	34	0	7
SI_	34	0	7	96	48	2
TAP	34	192	3
TAP	34	192	4
TAP	34	288	2
TAP	34	288	5
STR	35	0	1
SI_	35	0	1	96	48	4
TAP	35	96	5
STR	35	192	6
SI_	35	192	6	96	48	3
TAP	35	288	2
STR	36	0	0
SI_	36	0	0	96	48	4
TAP	36	96	6
STR	36	192	7
SI_	36	192	7	96	48	3
TAP	36	288	1
STR	37	0	2
SI_	37	0	2	96	48	7
TAP	37	96	6
STR	37	192	5
SI_	37	192	5	96	48	0
TAP	37	288	1
STR	38	0	1
SCR	38	0	1	96	48	4
TAP	38	96	5
STR	38	192	6
SCL	38	192	6	96	48	3
TAP	38	288	2
STR	39	0	0
SCR	39	0	0	96	48	3
TAP	39	96	6
STR	39	192	7
SCL	39	192	7	96	48	4
TAP	39	288	1
STR	40	0	2
SCL	40	0	2	96	48	7
TAP	40	96	6
STR	40	192	5
SCR	40	192	5	96	48	0
TAP	40	288	1
STR	41	0	2
SCL	41	0	2	96	144	5
BRK	41	288	0
BRK	41	288	7
TAP	42	0	1
TAP	42	0	6
TAP	42	96	2
HLD	42	144	2	144
TAP	42	288	3
HLD	42	336	3	144
TAP	43	96	4
HLD	43	144	4	144
TAP	43	288	5
TAP	43	336	5
TAP	44	0	3
TAP	44	48	4
TAP	44	96	2
HLD	44	144	2	144
TAP	44	288	3
TAP	44	336	4
TAP	45	0	5
HLD	45	48	5	96
TAP	45	144	4
TAP	45	192	6
TAP	45	240	3
TAP	45	288	4
TAP	45	336	1
HLD	46	0	1	96
TAP	46	96	0
HLD	46	144	0	96
TAP	46	240	7
TAP	46	288	6
TAP	46	336	4
TAP	46	336	5
TAP	47	48	2
TAP	47	48	3
TAP	47	144	0
TAP	47	144	7
TAP	47	240	1
TAP	47	288	2
HLD	47	336	3	144
TAP	48	96	4
TAP	48	144	3
TAP	48	192	4
HLD	48	240	1	96
HLD	48	336	3	96
HLD	49	48	4	96
HLD	49	144	6	96
HLD	49	240	0	96
TAP	49	336	7
TAP	50	0	1
TAP	50	0	6
TAP	50	96	5
HLD	50	144	5	144
TAP	50	288	4
HLD	50	336	4	144
TAP	51	96	3
HLD	51	144	3	144
TAP	51	288	2
TAP	51	336	5
TAP	52	0	3
TAP	52	0	4
TAP	52	96	2
TAP	52	144	3
TAP	52	192	4
TAP	52	240	5
TAP	52	336	0
TAP	52	336	7
TAP	53	48	6
TAP	53	96	7
TAP	53	144	0
TAP	53	144	5
TAP	53	240	1
TAP	53	288	0
TAP	53	336	2
TAP	53	336	7
TAP	54	96	5
TAP	54	144	4
TAP	54	192	3
HLD	54	240	2	96
HLD	54	336	0	96
HLD	55	48	7	96
HLD	55	144	5	96
HLD	55	240	0	96
TAP	55	336	7
TAP	56	0	0
TAP	56	48	1
TAP	56	96	2
HLD	56	144	3	144
TAP	56	288	7
TAP	56	336	6
TAP	57	0	5
HLD	57	48	4	96
TAP	57	144	3
STR	57	192	3
SI_	57	192	3	96	48	0
STR	57	192	4
SI_	57	192	4	96	48	7
TAP	58	0	1
TAP	58	48	1
TAP	58	96	4
TAP	58	144	4
TAP	58	192	3
TAP	58	240	3
TAP	58	288	6
TAP	58	336	6
TAP	59	0	2
TAP	59	48	2
TAP	59	96	7
TAP	59	144	7
TAP	59	192	0
TAP	59	240	0
TAP	59	288	5
TAP	59	336	5
TAP	60	0	1
TAP	60	48	2
TAP	60	96	3
TAP	60	144	4
TAP	60	192	0
TAP	60	240	1
TAP	60	288	2
TAP	60	336	3
TAP	61	0	6
TAP	61	48	5
TAP	61	96	4
TAP	61	144	3
TAP	61	192	7
TAP	61	240	6
TAP	61	288	5
TAP	61	336	4
TAP	62	0	1
TAP	62	48	4
TAP	62	96	3
TAP	62	144	6
TAP	62	192	3
TAP	62	240	4
TAP	62	288	1
TAP	62	336	5
TAP	63	0	2
TAP	63	48	7
TAP	63	96	0
TAP	63	144	5
TAP	63	192	1
TAP	63	240	6
TAP	63	288	3
TAP	63	336	4
TAP	64	0	1
TAP	64	0	3
TAP	64	48	1
TAP	64	48	3
TAP	64	96	4
TAP	64	96	6
TAP	64	144	4
TAP	64	144	6
TAP	64	192	2
TAP	64	216	5
TAP	64	240	2
TAP	64	264	5
TAP	64	288	3
TAP	64	312	4
TAP	64	336	3
TAP	64	360	4
STR	65	0	3
SCL	65	0	3	96	144	4
BRK	65	288	0
BRK	65	288	7
TAP	66	0	3
TAP	66	0	4
STR	66	96	0
SI_	66	96	0	96	48	5
STR	66	96	1
SI_	66	96	1	96	48	4
TAP	66	144	0
TAP	66	144	1
STR	66	288	6
SI_	66	288	6	96	48	3
STR	66	288	7
SI_	66	288	7	96	48	2
TAP	66	336	6
TAP	66	336	7
STR	67	96	0
SI_	67	96	0	96	48	3
STR	67	96	7
SI_	67	96	7	96	48	4
TAP	67	144	0
TAP	67	144	7
TAP	67	288	1
TAP	67	336	2
TAP	68	0	3
TAP	68	48	4
TAP	68	96	5
HLD	68	144	6	144
TAP	68	288	5
TAP	68	336	4
TAP	69	0	3
HLD	69	48	2	96
TAP	69	144	3
TAP	69	192	1
TAP	69	240	0
TAP	69	288	7
TAP	69	336	6
TAP	70	0	2
TAP	70	0	5
TAP	70	96	6
HLD	70	144	6	96
HLD	70	240	7	96
HLD	70	336	0	96
HLD	71	48	1	96
HLD	71	144	7	96
TAP	71	240	0
TAP	71	288	1
TAP	71	288	6
TAP	71	336	2
TAP	71	336	5
TAP	72	0	3
TAP	72	0	4
TAP	72	96	6
TAP	72	144	3
TAP	72	192	4
STR	72	240	1
SI_	72	240	1	96	48	4
STR	72	336	6
SI_	72	336	6	96	48	3
STR	73	48	0
SI_	73	48	0	96	48	4
STR	73	144	7
SI_	73	144	7	96	48	3
TAP	73	240	0
BRK	73	288	0
TAP	74	0	3
TAP	74	0	4
STR	74	96	6
SCL	74	96	6	96	48	3
STR	74	96	7
SCR	74	96	7	96	48	2
TAP	74	144	6
TAP	74	144	7
STR	74	288	0
SCL	74	288	0	96	48	5
STR	74	288	1
SCR	74	288	1	96	48	4
TAP	74	336	0
TAP	74	336	1
STR	75	96	0
SCR	75	96	0	96	48	3
STR	75	96	7
SCL	75	96	7	96	48	4
TAP	75	144	0
TAP	75	144	7
TAP	75	288	5
TAP	75	336	4
HLD	76	0	3	96
TAP	76	96	2
TAP	76	144	1
TAP	76	192	0
HLD	76	240	7	96
HLD	76	336	0	96
TAP	77	48	7
TAP	77	96	1
TAP	77	96	6
TAP	77	144	2
TAP	77	144	5
STR	77	240	3
SI_	77	240	3	96	48	7
STR	77	240	4
SI_	77	240	4	96	48	0
TAP	77	288	3
TAP	77	288	4
TAP	78	96	6
TAP	78	144	5
TAP	78	192	4
HLD	78	240	3	96
HLD	78	336	5	96
HLD	79	48	7	96
HLD	79	144	1	96
HLD	79	240	3	96
TAP	79	336	4
TAP	80	0	1
TAP	80	48	0
TAP	80	96	7
TAP	80	144	1
TAP	80	144	6
TAP	80	240	3
TAP	80	240	4
TAP	80	288	2
TAP	80	288	5
STR	80	336	1
SI_	80	336	1	96	48	3
TAP	80	336	6
STR	81	48	7
SI_	81	48	7	96	48	5
STR	81	144	0
SI_	81	144	0	96	48	4
STR	81	240	6
SI_	81	240	6	96	48	2
TAP	81	336	0
BRK	82	0	0

T_REC_TAP	434
T_REC_BRK	9
T_REC_XTP	0
T_REC_HLD	44
T_REC_XHO	0
T_REC_STR	51
T_REC_BST	0
T_REC_XST	0
T_REC_TTP	0
T_REC_THO	0
T_REC_SLD	51
T_REC_ALL	589
T_NUM_TAP	485
T_NUM_BRK	9
T_NUM_HLD	44
T_NUM_SLD	51
T_NUM_ALL	589
T_JUDGE_TAP	494
T_JUDGE_HLD	98
T_JUDGE_SLD	51
T_JUDGE_ALL	643
TTM_EACHPAIRS	122
TTM_SCR_TAP	242500
TTM_SCR_BRK	23400
TTM_SCR_HLD	44000
TTM_SCR_SLD	76500
TTM_SCR_ALL	386400
TTM_SCR_S	373950
TTM_SCR_SS	385500
TTM_RAT_ACV	10023

