VERSION	0.00.00	1.03.00
FES_MODE	0
BPM_DEF	156.000	156.000	156.000	156.000
MET_DEF	4	4
RESOLUTION	384
CLK_DEF	384
COMPATIBLE_CODE	MA2

BPM	0	0	156.000
MET	0	0	4	4

TAP	6	0	0
TAP	6	0	7
TAP	6	96	1
TAP	6	192	2
TAP	6	288	3
TAP	7	0	3
TAP	7	0	4
TAP	7	96	5
TAP	7	192	6
TAP	7	288	7
TAP	8	0	0
TAP	8	0	7
TAP	8	96	5
TAP	8	96	6
TAP	8	192	0
TAP	8	192	7
TAP	8	288	1
TAP	8	288	2
TAP	9	0	0
TAP	9	0	7
TAP	9	192	3
TAP	9	192	4
BRK	9	288	1
BRK	9	288	6
TAP	10	0	0
TAP	10	96	2
TAP	10	192	1
TAP	10	288	3
TAP	11	0	7
TAP	11	96	5
TAP	11	192	6
TAP	11	288	4
TAP	12	0	1
TAP	12	96	3
TAP	12	192	4
TAP	12	288	6
TAP	13	0	0
TAP	13	48	0
TAP	13	96	0
STR	13	192	6
SI_	13	192	6	96	48	2
TAP	14	0	0
TAP	14	96	1
HLD	14	192	2	96
TAP	14	288	3
TAP	15	0	7
TAP	15	96	6
HLD	15	192	5	96
TAP	15	288	4
TAP	16	0	1
TAP	16	96	6
HLD	16	192	0	96
TAP	16	288	7
TAP	17	0	1
TAP	17	0	6
TAP	17	48	1
TAP	17	48	6
TAP	17	96	1
TAP	17	96	6
TAP	17	192	0
TAP	17	192	7
HLD	18	0	1	96
TAP	18	96	2
HLD	18	192	6	96
TAP	18	288	5
HLD	19	0	1	96
TAP	19	96	3
HLD	19	192	6	96
TAP	19	288	4
HLD	20	0	1	96
TAP	20	96	0
HLD	20	192	6	96
TAP	20	288	7
TAP	21	0	0
TAP	21	96	7
TAP	21	192	2
TAP	21	192	5
TAP	21	240	2
TAP	21	240	5
TAP	21	288	2
TAP	21	288	5
STR	22	0	3
SI_	22	0	3	96	48	0
STR	22	192	7
SI_	22	192	7	96	48	4
STR	23	0	2
SI_	23	0	2	96	48	5
STR	23	192	6
SI_	23	192	6	96	48	1
STR	24	0	0
SI_	24	0	0	96	48	4
STR	24	192	7
SI_	24	192	7	96	48	3
BRK	25	0	0
BRK	25	96	7
BRK	25	192	1
BRK	25	192	6
TAP	26	0	0
HLD	26	96	1	192
TAP	26	288	2
TAP	27	0	7
HLD	27	96	6	192
TAP	27	288	5
TAP	28	0	3
HLD	28	96	2	192
TAP	28	288	1
TAP	29	0	4
HLD	29	96	5	192
TAP	29	288	6
TAP	30	0	0
TAP	30	0	1
HLD	30	96	6	144
TAP	30	240	7
TAP	30	288	7
TAP	31	0	4
TAP	31	0	5
HLD	31	96	2	144
TAP	31	240	3
TAP	31	288	3
TAP	32	0	1
TAP	32	0	6
HLD	32	96	7	144
TAP	32	240	0
STR	32	288	0
SUL	32	288	0	96	288	7
TAP	34	0	2
TAP	34	0	3
TAP	34	96	2
TAP	34	192	2
TAP	34	192	3
TAP	34	288	3
TAP	35	0	4
TAP	35	0	5
TAP	35	96	5
TAP	35	192	4
TAP	35	192	5
TAP	35	288	4
TAP	36	0	2
TAP	36	0	3
TAP	36	96	1
TAP	36	192	2
TAP	36	192	3
TAP	36	288	4
TAP	37	0	4
TAP	37	0	5
TAP	37	96	6
TAP	37	192	4
TAP	37	192	5
TAP	38	0	0
TAP	38	0	1
TAP	38	96	4
TAP	38	192	6
TAP	38	192	7
TAP	38	288	3
TAP	39	0	0
TAP	39	0	1
TAP	39	96	3
TAP	39	192	6
TAP	39	192	7
TAP	39	288	4
TAP	40	0	0
TAP	40	0	1
TAP	40	96	5
TAP	40	192	6
TAP	40	192	7
TAP	40	288	2
STR	41	0	0
SCL	41	0	0	96	96	5
STR	41	0	1
SCR	41	0	1	96	96	4
BRK	41	288	1
HLD	42	0	0	384
HLD	43	0	2	384
HLD	44	0	4	384
HLD	45	0	6	192
TAP	45	192	0
HLD	46	0	7	384
HLD	47	0	5	384
HLD	48	0	3	384
HLD	49	0	1	192
TAP	49	192	7
TAP	50	0	4
TAP	50	0	5
TAP	50	96	6
TAP	50	288	7
TAP	51	96	0
TAP	51	288	1
TAP	52	96	2
TAP	52	288	3
TAP	53	96	4
TAP	53	288	5
TAP	54	0	2
TAP	54	0	3
TAP	54	96	1
TAP	54	288	0
TAP	55	96	7
TAP	55	288	6
TAP	56	96	5
TAP	56	288	4
TAP	57	0	3
TAP	57	0	4
BRK	57	192	0
BRK	57	192	7
BRK	57	288	0
BRK	57	288	7
STR	58	0	7
SI_	58	0	7	96	48	4
STR	58	192	3
SI_	58	192	3	96	48	0
STR	59	0	5
SI_	59	0	5	96	48	2
STR	59	192	1
SI_	59	192	1	96	48	6
TAP	60	0	4
TAP	60	96	3
TAP	60	192	2
TAP	60	288	1
TAP	61	0	0
TAP	61	96	7
TAP	61	192	6
TAP	61	288	5
TAP	62	0	2
TAP	62	48	3
TAP	62	96	2
TAP	62	192	5
TAP	62	240	4
TAP	62	288	5
TAP	63	0	2
TAP	63	48	3
TAP	63	96	1
TAP	63	192	5
TAP	63	240	4
TAP	63	288	6
TAP	64	0	0
TAP	64	48	0
TAP	64	96	7
TAP	64	144	7
TAP	64	192	1
TAP	64	240	6
TAP	64	288	2
TAP	64	336	5
TAP	65	0	3
TAP	65	0	4
TAP	65	192	2
TAP	65	192	5
BRK	65	288	0
BRK	65	288	7
TAP	66	0	2
TAP	66	0	3
TAP	66	96	0
TAP	66	192	2
TAP	66	192	3
TAP	66	288	1
TAP	67	0	4
TAP	67	0	5
TAP	67	96	7
TAP	67	192	4
TAP	67	192	5
TAP	67	288	6
TAP	68	0	2
TAP	68	0	3
TAP	68	96	2
TAP	68	96	3
TAP	68	192	1
TAP	68	192	3
TAP	68	288	0
TAP	68	288	3
TAP	69	0	4
TAP	69	0	5
TAP	69	96	4
TAP	69	96	5
TAP	69	192	4
TAP	69	192	6
TAP	69	288	4
BRK	69	288	7
TAP	70	0	2
TAP	70	0	3
TAP	70	96	0
TAP	70	192	2
TAP	70	192	3
TAP	70	288	1
TAP	71	0	2
TAP	71	0	3
TAP	71	96	2
TAP	71	192	2
TAP	71	192	3
TAP	71	288	3
TAP	72	0	4
TAP	72	0	5
TAP	72	96	4
TAP	72	192	4
TAP	72	192	5
TAP	72	288	5
TAP	73	0	4
TAP	73	0	5
TAP	73	96	6
TAP	73	192	4
TAP	73	192	5
BRK	73	288	7
TAP	74	0	2
TAP	74	48	3
TAP	74	96	1
TAP	74	96	4
TAP	74	192	5
TAP	74	240	4
TAP	74	288	3
TAP	74	288	6
TAP	75	0	2
TAP	75	48	3
TAP	75	96	1
TAP	75	96	4
TAP	75	192	5
TAP	75	240	4
TAP	75	288	3
TAP	75	288	6
TAP	76	0	1
TAP	76	48	0
TAP	76	96	2
TAP	76	96	7
TAP	76	192	6
TAP	76	240	7
TAP	76	288	0
TAP	76	288	5
STR	77	0	0
SI_	77	0	0	96	48	4
STR	77	192	7
SI_	77	192	7	96	48	4
TAP	78	0	0
TAP	78	48	7
TAP	78	96	0
TAP	78	144	7
TAP	78	192	0
TAP	78	240	7
TAP	78	288	1
TAP	78	288	6
TAP	79	0	3
TAP	79	48	4
TAP	79	96	3
TAP	79	144	4
TAP	79	192	3
TAP	79	240	4
TAP	79	288	2
TAP	79	288	5
TAP	80	0	0
TAP	80	48	7
TAP	80	96	1
TAP	80	144	6
TAP	80	192	0
TAP	80	240	7
TAP	80	288	1
TAP	80	336	7
STR	81	0	2
SCL	81	0	2	96	192	5
BRK	82	0	7

T_REC_TAP	280
T_REC_BRK	16
T_REC_XTP	0
T_REC_HLD	24
T_REC_XHO	0
T_REC_STR	17
T_REC_BST	0
T_REC_XST	0
T_REC_TTP	0
T_REC_THO	0
T_REC_SLD	17
T_REC_ALL	354
T_NUM_TAP	297
T_NUM_BRK	16
T_NUM_HLD	24
T_NUM_SLD	17
T_NUM_ALL	354
T_JUDGE_TAP	313
T_JUDGE_HLD	99
T_JUDGE_SLD	17
T_JUDGE_ALL	429
TTM_EACHPAIRS	71
TTM_SCR_TAP	148500
TTM_SCR_BRK	41600
TTM_SCR_HLD	24000
TTM_SCR_SLD	25500
TTM_SCR_ALL	239600
TTM_SCR_S	230900
TTM_SCR_SS	238000
TTM_RAT_ACV	10067

