VERSION	0.00.00	1.03.00
FES_MODE	0
BPM_DEF	156.000	156.000	156.000	156.000
MET_DEF	4	4
RESOLUTION	384
CLK_DEF	384
COMPATIBLE_CODE	MA2

BPM	0	0	156.000
MET	0	0	4	4

TAP	2	0	0
TAP	2	192	0
TAP	3	0	1
TAP	3	192	1
TAP	4	0	2
TAP	4	192	2
TAP	5	0	3
TAP	5	192	3
TAP	6	0	4
TAP	6	192	4
TAP	7	0	5
TAP	7	192	5
TAP	8	0	6
TAP	8	192	6
TAP	9	0	7
TAP	9	96	7
TAP	9	192	7
TAP	10	0	0
TAP	10	0	1
TAP	10	192	0
TAP	10	192	1
TAP	11	0	1
TAP	11	96	1
TAP	11	192	1
TAP	12	0	2
TAP	12	0	3
TAP	12	192	2
TAP	12	192	3
TAP	13	0	3
TAP	13	96	3
TAP	13	192	3
TAP	14	0	4
TAP	14	0	5
TAP	14	192	4
TAP	14	192	5
TAP	15	0	5
TAP	15	96	5
TAP	15	192	5
TAP	16	0	6
TAP	16	0	7
TAP	16	192	6
TAP	16	192	7
TAP	17	0	7
TAP	17	96	7
BRK	17	192	7
TAP	18	0	6
TAP	18	0	7
TAP	18	192	6
TAP	18	192	7
TAP	19	0	6
TAP	19	96	6
TAP	19	192	6
TAP	20	0	4
TAP	20	0	5
TAP	20	192	4
TAP	20	192	5
TAP	21	0	4
TAP	21	96	4
TAP	21	192	4
TAP	22	0	2
TAP	22	0	3
TAP	22	192	2
TAP	22	192	3
TAP	23	0	2
TAP	23	96	2
TAP	23	192	2
TAP	24	0	0
TAP	24	0	1
TAP	24	192	0
TAP	24	192	1
TAP	25	0	0
TAP	25	96	0
BRK	25	192	0
TAP	26	0	0
TAP	26	96	0
TAP	26	192	0
TAP	27	0	2
TAP	27	96	2
TAP	27	192	2
TAP	28	0	4
TAP	28	96	4
TAP	28	192	4
TAP	29	0	6
TAP	29	96	6
TAP	29	192	6
TAP	30	0	7
TAP	30	96	7
TAP	30	192	7
TAP	31	0	5
TAP	31	96	5
TAP	31	192	5
TAP	32	0	3
TAP	32	96	3
TAP	32	192	3
TAP	33	0	1
TAP	33	96	1
TAP	33	192	1
HLD	34	0	0	192
HLD	35	0	1	192
HLD	36	0	2	192
HLD	37	0	3	192
HLD	38	0	4	192
HLD	39	0	5	192
HLD	40	0	6	192
HLD	41	0	7	192
TAP	42	0	0
TAP	42	0	1
TAP	42	192	0
TAP	42	192	1
TAP	43	0	2
TAP	43	0	7
TAP	44	0	6
TAP	44	0	7
TAP	44	192	6
TAP	44	192	7
TAP	45	0	0
TAP	45	0	5
TAP	46	0	4
TAP	46	0	5
TAP	46	192	4
TAP	46	192	5
TAP	47	0	3
TAP	47	0	6
TAP	48	0	2
TAP	48	0	3
TAP	48	192	2
TAP	48	192	3
TAP	49	0	1
TAP	49	0	4
TAP	50	0	3
TAP	50	192	2
TAP	51	0	1
TAP	51	192	0
TAP	52	0	7
TAP	52	192	6
TAP	53	0	5
TAP	53	192	4
TAP	54	0	3
TAP	54	192	1
TAP	55	0	7
TAP	55	192	5
TAP	56	0	4
TAP	56	192	6
TAP	57	0	0
TAP	57	192	2
STR	58	0	4
SI_	58	0	4	96	480	7
STR	60	0	0
SI_	60	0	0	96	480	3
TAP	62	0	4
TAP	62	192	4
TAP	63	0	3
TAP	63	192	3
TAP	64	0	3
TAP	64	0	4
TAP	64	192	3
TAP	64	288	4
BRK	65	0	3
TAP	66	0	3
TAP	66	96	3
TAP	66	192	2
TAP	67	0	2
TAP	67	96	2
TAP	67	192	1
TAP	68	0	1
TAP	68	96	1
TAP	68	192	0
TAP	69	0	0
TAP	69	96	0
TAP	69	192	7
TAP	70	0	7
TAP	70	96	7
TAP	70	192	6
TAP	71	0	6
TAP	71	96	6
TAP	71	192	5
TAP	72	0	5
TAP	72	96	5
TAP	72	192	4
TAP	73	0	4
TAP	73	96	4
TAP	73	192	3
TAP	74	0	4
TAP	74	96	4
TAP	74	192	5
TAP	74	288	5
TAP	75	0	6
TAP	75	96	6
TAP	75	192	7
TAP	76	0	0
TAP	76	96	0
TAP	76	192	1
TAP	76	288	1
TAP	77	0	2
TAP	77	96	2
TAP	77	192	3
TAP	78	0	3
TAP	78	96	3
TAP	78	192	2
TAP	78	288	2
TAP	79	0	1
TAP	79	96	1
TAP	79	192	0
TAP	80	0	7
TAP	80	96	7
TAP	80	192	6
TAP	80	288	6
TAP	81	0	5
TAP	81	96	5
TAP	81	192	4
TAP	81	288	4
BRK	82	0	3

T_REC_TAP	196
T_REC_BRK	4
T_REC_XTP	0
T_REC_HLD	8
T_REC_XHO	0
T_REC_STR	2
T_REC_BST	0
T_REC_XST	0
T_REC_TTP	0
T_REC_THO	0
T_REC_SLD	2
T_REC_ALL	212
T_NUM_TAP	198
T_NUM_BRK	4
T_NUM_HLD	8
T_NUM_SLD	2
T_NUM_ALL	212
T_JUDGE_TAP	202
T_JUDGE_HLD	32
T_JUDGE_SLD	2
T_JUDGE_ALL	236
TTM_EACHPAIRS	29
TTM_SCR_TAP	99000
TTM_SCR_BRK	10400
TTM_SCR_HLD	8000
TTM_SCR_SLD	3000
TTM_SCR_ALL	120400
TTM_SCR_S	116400
TTM_SCR_SS	120000
TTM_RAT_ACV	10033

